  0
SECTION
  2
HEADER
  9
$ACADVER
  1
AC1024
  9
$ACADMAINTVER
 70
    39
  9
$DWGCODEPAGE
  3
ANSI_1252
  9
$LASTSAVEDBY
  1
Jeroen.Vonk
  9
$INSBASE
 10
0.0
 20
0.0
 30
0.0
  9
$EXTMIN
 10
1265.961749519646
 20
197.8311546540512
 30
-0.0000000000000058
  9
$EXTMAX
 10
2801.076068621984
 20
1177.821407075697
 30
0.0000000000000104
  9
$LIMMIN
 10
0.0
 20
0.0
  9
$LIMMAX
 10
420.0
 20
297.0
  9
$ORTHOMODE
 70
     1
  9
$REGENMODE
 70
     1
  9
$FILLMODE
 70
     1
  9
$QTEXTMODE
 70
     0
  9
$MIRRTEXT
 70
     0
  9
$LTSCALE
 40
1.0
  9
$ATTMODE
 70
     1
  9
$TEXTSIZE
 40
2.5
  9
$TRACEWID
 40
1.0
  9
$TEXTSTYLE
  7
Standard
  9
$CLAYER
  8
0
  9
$CELTYPE
  6
ByLayer
  9
$CECOLOR
 62
   256
  9
$CELTSCALE
 40
1.0
  9
$DISPSILH
 70
     0
  9
$DIMSCALE
 40
4.0
  9
$DIMASZ
 40
2.5
  9
$DIMEXO
 40
0.625
  9
$DIMDLI
 40
3.75
  9
$DIMRND
 40
0.0
  9
$DIMDLE
 40
0.0
  9
$DIMEXE
 40
1.25
  9
$DIMTP
 40
0.0
  9
$DIMTM
 40
0.0
  9
$DIMTXT
 40
2.5
  9
$DIMCEN
 40
2.5
  9
$DIMTSZ
 40
0.0
  9
$DIMTOL
 70
     0
  9
$DIMLIM
 70
     0
  9
$DIMTIH
 70
     0
  9
$DIMTOH
 70
     0
  9
$DIMSE1
 70
     0
  9
$DIMSE2
 70
     0
  9
$DIMTAD
 70
     1
  9
$DIMZIN
 70
     8
  9
$DIMBLK
  1

  9
$DIMASO
 70
     1
  9
$DIMSHO
 70
     1
  9
$DIMPOST
  1

  9
$DIMAPOST
  1

  9
$DIMALT
 70
     0
  9
$DIMALTD
 70
     3
  9
$DIMALTF
 40
0.03937007874016
  9
$DIMLFAC
 40
1.0
  9
$DIMTOFL
 70
     1
  9
$DIMTVP
 40
0.0
  9
$DIMTIX
 70
     0
  9
$DIMSOXD
 70
     0
  9
$DIMSAH
 70
     0
  9
$DIMBLK1
  1

  9
$DIMBLK2
  1

  9
$DIMSTYLE
  2
ISO-25
  9
$DIMCLRD
 70
     0
  9
$DIMCLRE
 70
     0
  9
$DIMCLRT
 70
     0
  9
$DIMTFAC
 40
1.0
  9
$DIMGAP
 40
0.625
  9
$DIMJUST
 70
     0
  9
$DIMSD1
 70
     0
  9
$DIMSD2
 70
     0
  9
$DIMTOLJ
 70
     0
  9
$DIMTZIN
 70
     8
  9
$DIMALTZ
 70
     0
  9
$DIMALTTZ
 70
     0
  9
$DIMUPT
 70
     0
  9
$DIMDEC
 70
     2
  9
$DIMTDEC
 70
     2
  9
$DIMALTU
 70
     2
  9
$DIMALTTD
 70
     3
  9
$DIMTXSTY
  7
Standard
  9
$DIMAUNIT
 70
     0
  9
$DIMADEC
 70
     0
  9
$DIMALTRND
 40
0.0
  9
$DIMAZIN
 70
     0
  9
$DIMDSEP
 70
    44
  9
$DIMATFIT
 70
     3
  9
$DIMFRAC
 70
     0
  9
$DIMLDRBLK
  1

  9
$DIMLUNIT
 70
     2
  9
$DIMLWD
 70
    -2
  9
$DIMLWE
 70
    -2
  9
$DIMTMOVE
 70
     0
  9
$DIMFXL
 40
1.0
  9
$DIMFXLON
 70
     0
  9
$DIMJOGANG
 40
0.7853981633974483
  9
$DIMTFILL
 70
     0
  9
$DIMTFILLCLR
 70
     0
  9
$DIMARCSYM
 70
     0
  9
$DIMLTYPE
  6

  9
$DIMLTEX1
  6

  9
$DIMLTEX2
  6

  9
$DIMTXTDIRECTION
 70
     0
  9
$LUNITS
 70
     2
  9
$LUPREC
 70
     4
  9
$SKETCHINC
 40
1.0
  9
$FILLETRAD
 40
9.0
  9
$AUNITS
 70
     0
  9
$AUPREC
 70
     0
  9
$MENU
  1
.
  9
$ELEVATION
 40
0.0
  9
$PELEVATION
 40
0.0
  9
$THICKNESS
 40
0.0
  9
$LIMCHECK
 70
     0
  9
$CHAMFERA
 40
0.0
  9
$CHAMFERB
 40
0.0
  9
$CHAMFERC
 40
0.0
  9
$CHAMFERD
 40
0.0
  9
$SKPOLY
 70
     0
  9
$TDCREATE
 40
2457948.641988345
  9
$TDUCREATE
 40
2457948.558655012
  9
$TDUPDATE
 40
2457957.473802188
  9
$TDUUPDATE
 40
2457957.390468854
  9
$TDINDWG
 40
0.1044786111
  9
$TDUSRTIMER
 40
0.1044786111
  9
$USRTIMER
 70
     1
  9
$ANGBASE
 50
0.0
  9
$ANGDIR
 70
     0
  9
$PDMODE
 70
     0
  9
$PDSIZE
 40
0.0
  9
$PLINEWID
 40
0.0
  9
$SPLFRAME
 70
     0
  9
$SPLINETYPE
 70
     6
  9
$SPLINESEGS
 70
     8
  9
$HANDSEED
  5
BA2
  9
$SURFTAB1
 70
     6
  9
$SURFTAB2
 70
     6
  9
$SURFTYPE
 70
     6
  9
$SURFU
 70
     6
  9
$SURFV
 70
     6
  9
$UCSBASE
  2

  9
$UCSNAME
  2

  9
$UCSORG
 10
0.0
 20
0.0
 30
0.0
  9
$UCSXDIR
 10
1.0
 20
0.0
 30
0.0
  9
$UCSYDIR
 10
0.0
 20
1.0
 30
0.0
  9
$UCSORTHOREF
  2

  9
$UCSORTHOVIEW
 70
     0
  9
$UCSORGTOP
 10
0.0
 20
0.0
 30
0.0
  9
$UCSORGBOTTOM
 10
0.0
 20
0.0
 30
0.0
  9
$UCSORGLEFT
 10
0.0
 20
0.0
 30
0.0
  9
$UCSORGRIGHT
 10
0.0
 20
0.0
 30
0.0
  9
$UCSORGFRONT
 10
0.0
 20
0.0
 30
0.0
  9
$UCSORGBACK
 10
0.0
 20
0.0
 30
0.0
  9
$PUCSBASE
  2

  9
$PUCSNAME
  2

  9
$PUCSORG
 10
0.0
 20
0.0
 30
0.0
  9
$PUCSXDIR
 10
1.0
 20
0.0
 30
0.0
  9
$PUCSYDIR
 10
0.0
 20
1.0
 30
0.0
  9
$PUCSORTHOREF
  2

  9
$PUCSORTHOVIEW
 70
     0
  9
$PUCSORGTOP
 10
0.0
 20
0.0
 30
0.0
  9
$PUCSORGBOTTOM
 10
0.0
 20
0.0
 30
0.0
  9
$PUCSORGLEFT
 10
0.0
 20
0.0
 30
0.0
  9
$PUCSORGRIGHT
 10
0.0
 20
0.0
 30
0.0
  9
$PUCSORGFRONT
 10
0.0
 20
0.0
 30
0.0
  9
$PUCSORGBACK
 10
0.0
 20
0.0
 30
0.0
  9
$USERI1
 70
     0
  9
$USERI2
 70
     0
  9
$USERI3
 70
     0
  9
$USERI4
 70
     0
  9
$USERI5
 70
     0
  9
$USERR1
 40
0.0
  9
$USERR2
 40
0.0
  9
$USERR3
 40
0.0
  9
$USERR4
 40
0.0
  9
$USERR5
 40
0.0
  9
$WORLDVIEW
 70
     1
  9
$SHADEDGE
 70
     3
  9
$SHADEDIF
 70
    70
  9
$TILEMODE
 70
     1
  9
$MAXACTVP
 70
    64
  9
$PINSBASE
 10
0.0
 20
0.0
 30
0.0
  9
$PLIMCHECK
 70
     0
  9
$PEXTMIN
 10
0.0
 20
0.0
 30
0.0
  9
$PEXTMAX
 10
0.0
 20
0.0
 30
0.0
  9
$PLIMMIN
 10
0.0
 20
0.0
  9
$PLIMMAX
 10
12.0
 20
9.0
  9
$UNITMODE
 70
     0
  9
$VISRETAIN
 70
     1
  9
$PLINEGEN
 70
     0
  9
$PSLTSCALE
 70
     1
  9
$TREEDEPTH
 70
  3020
  9
$CMLSTYLE
  2
Standard
  9
$CMLJUST
 70
     0
  9
$CMLSCALE
 40
20.0
  9
$PROXYGRAPHICS
 70
     1
  9
$MEASUREMENT
 70
     1
  9
$CELWEIGHT
370
    -1
  9
$ENDCAPS
280
     0
  9
$JOINSTYLE
280
     0
  9
$LWDISPLAY
290
     0
  9
$INSUNITS
 70
     4
  9
$HYPERLINKBASE
  1

  9
$STYLESHEET
  1

  9
$XEDIT
290
     1
  9
$CEPSNTYPE
380
     0
  9
$PSTYLEMODE
290
     1
  9
$FINGERPRINTGUID
  2
{952E96A4-F489-4C6B-8A36-A02A1704135C}
  9
$VERSIONGUID
  2
{3E38EC06-D368-48E0-9222-D5482413BFB5}
  9
$EXTNAMES
290
     1
  9
$PSVPSCALE
 40
0.0
  9
$OLESTARTUP
290
     0
  9
$SORTENTS
280
   127
  9
$INDEXCTL
280
     0
  9
$HIDETEXT
280
     1
  9
$XCLIPFRAME
280
     2
  9
$HALOGAP
280
     0
  9
$OBSCOLOR
 70
   257
  9
$OBSLTYPE
280
     0
  9
$INTERSECTIONDISPLAY
280
     0
  9
$INTERSECTIONCOLOR
 70
   257
  9
$DIMASSOC
280
     2
  9
$PROJECTNAME
  1

  9
$CAMERADISPLAY
290
     0
  9
$LENSLENGTH
 40
50.0
  9
$CAMERAHEIGHT
 40
0.0
  9
$STEPSPERSEC
 40
2.0
  9
$STEPSIZE
 40
6.0
  9
$3DDWFPREC
 40
2.0
  9
$PSOLWIDTH
 40
5.0
  9
$PSOLHEIGHT
 40
80.0
  9
$LOFTANG1
 40
1.570796326794896
  9
$LOFTANG2
 40
1.570796326794896
  9
$LOFTMAG1
 40
0.0
  9
$LOFTMAG2
 40
0.0
  9
$LOFTPARAM
 70
     7
  9
$LOFTNORMALS
280
     1
  9
$LATITUDE
 40
37.795
  9
$LONGITUDE
 40
-122.394
  9
$NORTHDIRECTION
 40
0.0
  9
$TIMEZONE
 70
 -8000
  9
$LIGHTGLYPHDISPLAY
280
     1
  9
$TILEMODELIGHTSYNCH
280
     1
  9
$CMATERIAL
347
EC
  9
$SOLIDHIST
280
     1
  9
$SHOWHIST
280
     1
  9
$DWFFRAME
280
     2
  9
$DGNFRAME
280
     0
  9
$REALWORLDSCALE
290
     1
  9
$INTERFERECOLOR
 62
     1
  9
$INTERFEREOBJVS
345
F9
  9
$INTERFEREVPVS
346
F6
  9
$CSHADOW
280
     0
  9
$SHADOWPLANELOCATION
 40
0.0
  0
ENDSEC
  0
SECTION
  2
CLASSES
  0
CLASS
  1
ACDBDICTIONARYWDFLT
  2
AcDbDictionaryWithDefault
  3
ObjectDBX Classes
 90
        0
 91
        1
280
     0
281
     0
  0
CLASS
  1
DICTIONARYVAR
  2
AcDbDictionaryVar
  3
ObjectDBX Classes
 90
        0
 91
        7
280
     0
281
     0
  0
CLASS
  1
TABLESTYLE
  2
AcDbTableStyle
  3
ObjectDBX Classes
 90
     4095
 91
        1
280
     0
281
     0
  0
CLASS
  1
MATERIAL
  2
AcDbMaterial
  3
ObjectDBX Classes
 90
     1153
 91
        3
280
     0
281
     0
  0
CLASS
  1
VISUALSTYLE
  2
AcDbVisualStyle
  3
ObjectDBX Classes
 90
     4095
 91
       24
280
     0
281
     0
  0
CLASS
  1
SCALE
  2
AcDbScale
  3
ObjectDBX Classes
 90
     1153
 91
       17
280
     0
281
     0
  0
CLASS
  1
MLEADERSTYLE
  2
AcDbMLeaderStyle
  3
ACDB_MLEADERSTYLE_CLASS
 90
     4095
 91
        2
280
     0
281
     0
  0
CLASS
  1
CELLSTYLEMAP
  2
AcDbCellStyleMap
  3
ObjectDBX Classes
 90
     1152
 91
        1
280
     0
281
     0
  0
CLASS
  1
EXACXREFPANELOBJECT
  2
ExAcXREFPanelObject
  3
EXAC_ESW
 90
     1025
 91
        0
280
     0
281
     0
  0
CLASS
  1
NPOCOLLECTION
  2
AcDbImpNonPersistentObjectsCollection
  3
ObjectDBX Classes
 90
     1153
 91
        0
280
     0
281
     0
  0
CLASS
  1
LAYER_INDEX
  2
AcDbLayerIndex
  3
ObjectDBX Classes
 90
        0
 91
        0
280
     0
281
     0
  0
CLASS
  1
SPATIAL_INDEX
  2
AcDbSpatialIndex
  3
ObjectDBX Classes
 90
        0
 91
        0
280
     0
281
     0
  0
CLASS
  1
IDBUFFER
  2
AcDbIdBuffer
  3
ObjectDBX Classes
 90
        0
 91
        0
280
     0
281
     0
  0
CLASS
  1
SORTENTSTABLE
  2
AcDbSortentsTable
  3
ObjectDBX Classes
 90
        0
 91
        1
280
     0
281
     0
  0
CLASS
  1
DIMASSOC
  2
AcDbDimAssoc
  3
"AcDbDimAssoc|Product Desc:     AcDim ARX App For Dimension|Company:          Autodesk, Inc.|WEB Address:      www.autodesk.com"
 90
        0
 91
        1
280
     0
281
     0
  0
CLASS
  1
DBCOLOR
  2
AcDbColor
  3
ObjectDBX Classes
 90
        0
 91
        2
280
     0
281
     0
  0
ENDSEC
  0
SECTION
  2
TABLES
  0
TABLE
  2
VPORT
  5
8
330
0
100
AcDbSymbolTable
 70
     1
  0
VPORT
  5
EA
330
8
100
AcDbSymbolTableRecord
100
AcDbViewportTableRecord
  2
*Active
 70
     0
 10
0.0
 20
0.0
 11
1.0
 21
1.0
 12
2033.518909070815
 22
687.8262808648742
 13
0.0
 23
0.0
 14
10.0
 24
10.0
 15
10.0
 25
10.0
 16
0.0
 26
0.0
 36
1.0
 17
0.0
 27
0.0
 37
0.0
 40
989.1490398274555
 41
2.366614664586583
 42
50.0
 43
0.0
 44
0.0
 50
0.0
 51
0.0
 71
     0
 72
  1000
 73
     1
 74
     3
 75
     0
 76
     0
 77
     0
 78
     0
281
     0
 65
     1
110
0.0
120
0.0
130
0.0
111
1.0
121
0.0
131
0.0
112
0.0
122
1.0
132
0.0
 79
     0
146
0.0
348
F5
 60
     3
 61
     5
292
     1
282
     1
141
0.0
142
0.0
 63
   250
421
  3355443
  0
ENDTAB
  0
TABLE
  2
LTYPE
  5
5
330
0
100
AcDbSymbolTable
 70
     1
  0
LTYPE
  5
14
330
5
100
AcDbSymbolTableRecord
100
AcDbLinetypeTableRecord
  2
ByBlock
 70
     0
  3

 72
    65
 73
     0
 40
0.0
  0
LTYPE
  5
15
330
5
100
AcDbSymbolTableRecord
100
AcDbLinetypeTableRecord
  2
ByLayer
 70
     0
  3

 72
    65
 73
     0
 40
0.0
  0
LTYPE
  5
16
330
5
100
AcDbSymbolTableRecord
100
AcDbLinetypeTableRecord
  2
Continuous
 70
     0
  3
Solid line
 72
    65
 73
     0
 40
0.0
  0
ENDTAB
  0
TABLE
  2
LAYER
  5
2
102
{ACAD_XDICTIONARY
360
1FF
102
}
330
0
100
AcDbSymbolTable
 70
     2
  0
LAYER
  5
10
102
{ACAD_XDICTIONARY
360
13C
102
}
330
2
100
AcDbSymbolTableRecord
100
AcDbLayerTableRecord
  2
0
 70
     0
 62
     7
  6
Continuous
370
    -3
390
F
347
EE
  0
LAYER
  5
225
330
2
100
AcDbSymbolTableRecord
100
AcDbLayerTableRecord
  2
Defpoints
 70
     0
 62
     7
  6
Continuous
290
     0
370
    -3
390
F
347
EE
  0
ENDTAB
  0
TABLE
  2
STYLE
  5
3
330
0
100
AcDbSymbolTable
 70
     2
  0
STYLE
  5
11
330
3
100
AcDbSymbolTableRecord
100
AcDbTextStyleTableRecord
  2
Standard
 70
     0
 40
0.0
 41
1.0
 50
0.0
 71
     0
 42
2.5
  3
arial.ttf
  4

1001
ACAD
1000
Arial
1071
       34
  0
STYLE
  5
132
330
3
100
AcDbSymbolTableRecord
100
AcDbTextStyleTableRecord
  2
Annotative
 70
     0
 40
0.0
 41
1.0
 50
0.0
 71
     0
 42
2.5
  3
arial.ttf
  4

1001
AcadAnnotative
1000
AnnotativeData
1002
{
1070
     1
1070
     1
1002
}
1001
ACAD
1000
Arial
1071
       34
  0
ENDTAB
  0
TABLE
  2
VIEW
  5
6
330
0
100
AcDbSymbolTable
 70
     1
  0
ENDTAB
  0
TABLE
  2
UCS
  5
7
330
0
100
AcDbSymbolTable
 70
     0
  0
ENDTAB
  0
TABLE
  2
APPID
  5
9
330
0
100
AcDbSymbolTable
 70
    10
  0
APPID
  5
12
330
9
100
AcDbSymbolTableRecord
100
AcDbRegAppTableRecord
  2
ACAD
 70
     0
  0
APPID
  5
9E
330
9
100
AcDbSymbolTableRecord
100
AcDbRegAppTableRecord
  2
ACAD_PSEXT
 70
     0
  0
APPID
  5
133
330
9
100
AcDbSymbolTableRecord
100
AcDbRegAppTableRecord
  2
AcadAnnoPO
 70
     0
  0
APPID
  5
134
330
9
100
AcDbSymbolTableRecord
100
AcDbRegAppTableRecord
  2
AcadAnnotative
 70
     0
  0
APPID
  5
135
330
9
100
AcDbSymbolTableRecord
100
AcDbRegAppTableRecord
  2
ACAD_DSTYLE_DIMJAG
 70
     0
  0
APPID
  5
136
330
9
100
AcDbSymbolTableRecord
100
AcDbRegAppTableRecord
  2
ACAD_DSTYLE_DIMTALN
 70
     0
  0
APPID
  5
165
330
9
100
AcDbSymbolTableRecord
100
AcDbRegAppTableRecord
  2
ACAD_MLEADERVER
 70
     0
  0
APPID
  5
216
330
9
100
AcDbSymbolTableRecord
100
AcDbRegAppTableRecord
  2
ACAD_EXEMPT_FROM_CAD_STANDARDS
 70
     0
  0
APPID
  5
489
330
9
100
AcDbSymbolTableRecord
100
AcDbRegAppTableRecord
  2
GradientColor1ACI
 70
     0
  0
APPID
  5
48A
330
9
100
AcDbSymbolTableRecord
100
AcDbRegAppTableRecord
  2
GradientColor2ACI
 70
     0
  0
ENDTAB
  0
TABLE
  2
DIMSTYLE
  5
A
330
0
100
AcDbSymbolTable
 70
     3
100
AcDbDimStyleTable
 71
     2
340
27
340
137
  0
DIMSTYLE
105
1B0
330
A
100
AcDbSymbolTableRecord
100
AcDbDimStyleTableRecord
  2
Standard
 70
     0
340
11
  0
DIMSTYLE
105
137
330
A
100
AcDbSymbolTableRecord
100
AcDbDimStyleTableRecord
  2
Annotative
 70
     0
 40
0.0
 41
2.5
 42
0.625
 43
3.75
 44
1.25
 73
     0
 74
     0
 77
     1
 78
     8
140
2.5
141
2.5
143
0.03937007874016
147
0.625
171
     3
172
     1
271
     2
272
     2
274
     3
278
    44
283
     0
284
     8
340
11
1001
AcadAnnotative
1000
AnnotativeData
1002
{
1070
     1
1070
     1
1002
}
1001
ACAD_DSTYLE_DIMJAG
1070
   388
1040
1.5
1001
ACAD_DSTYLE_DIMTALN
1070
   392
1070
     0
  0
DIMSTYLE
105
27
102
{ACAD_REACTORS
330
385
330
408
330
66B
330
75C
330
7D2
330
B2D
102
}
330
A
100
AcDbSymbolTableRecord
100
AcDbDimStyleTableRecord
  2
ISO-25
 70
     0
 40
4.0
 41
2.5
 42
0.625
 43
3.75
 44
1.25
 73
     0
 74
     0
 77
     1
 78
     8
140
2.5
141
2.5
143
0.03937007874016
147
0.625
171
     3
172
     1
271
     2
272
     2
274
     3
278
    44
283
     0
284
     8
340
11
1001
ACAD_DSTYLE_DIMJAG
1070
   388
1040
1.5
1001
ACAD_DSTYLE_DIMTALN
1070
   392
1070
     0
  0
ENDTAB
  0
TABLE
  2
BLOCK_RECORD
  5
1
330
0
100
AcDbSymbolTable
 70
     8
  0
BLOCK_RECORD
  5
1F
102
{ACAD_XDICTIONARY
360
1CE
102
}
330
1
100
AcDbSymbolTableRecord
100
AcDbBlockTableRecord
  2
*Model_Space
340
22
 70
     0
280
     1
281
     0
  0
BLOCK_RECORD
  5
D2
330
1
100
AcDbSymbolTableRecord
100
AcDbBlockTableRecord
  2
*Paper_Space
340
D3
 70
     0
280
     1
281
     0
  0
BLOCK_RECORD
  5
D6
330
1
100
AcDbSymbolTableRecord
100
AcDbBlockTableRecord
  2
*Paper_Space0
340
D7
 70
     0
280
     1
281
     0
  0
BLOCK_RECORD
  5
386
330
1
100
AcDbSymbolTableRecord
100
AcDbBlockTableRecord
  2
*D1
340
0
 70
     0
280
     1
281
     0
  0
BLOCK_RECORD
  5
40B
330
1
100
AcDbSymbolTableRecord
100
AcDbBlockTableRecord
  2
*D2
340
0
 70
     0
280
     1
281
     0
  0
BLOCK_RECORD
  5
66E
330
1
100
AcDbSymbolTableRecord
100
AcDbBlockTableRecord
  2
*D3
340
0
 70
     0
280
     1
281
     0
  0
BLOCK_RECORD
  5
75E
330
1
100
AcDbSymbolTableRecord
100
AcDbBlockTableRecord
  2
*D4
340
0
 70
     0
280
     1
281
     0
  0
BLOCK_RECORD
  5
7D5
330
1
100
AcDbSymbolTableRecord
100
AcDbBlockTableRecord
  2
*D5
340
0
 70
     0
280
     1
281
     0
  0
BLOCK_RECORD
  5
B65
330
1
100
AcDbSymbolTableRecord
100
AcDbBlockTableRecord
  2
*D7
340
0
 70
     0
280
     1
281
     0
  0
ENDTAB
  0
ENDSEC
  0
SECTION
  2
BLOCKS
  0
BLOCK
  5
20
330
1F
100
AcDbEntity
  8
0
100
AcDbBlockBegin
  2
*Model_Space
 70
     0
 10
0.0
 20
0.0
 30
0.0
  3
*Model_Space
  1

  0
ENDBLK
  5
21
330
1F
100
AcDbEntity
  8
0
100
AcDbBlockEnd
  0
BLOCK
  5
D4
330
D2
100
AcDbEntity
 67
     1
  8
0
100
AcDbBlockBegin
  2
*Paper_Space
 70
     0
 10
0.0
 20
0.0
 30
0.0
  3
*Paper_Space
  1

  0
ENDBLK
  5
D5
330
D2
100
AcDbEntity
 67
     1
  8
0
100
AcDbBlockEnd
  0
BLOCK
  5
D8
330
D6
100
AcDbEntity
 67
     1
  8
0
100
AcDbBlockBegin
  2
*Paper_Space0
 70
     0
 10
0.0
 20
0.0
 30
0.0
  3
*Paper_Space0
  1

  0
ENDBLK
  5
D9
330
D6
100
AcDbEntity
 67
     1
  8
0
100
AcDbBlockEnd
  0
BLOCK
  5
387
330
386
100
AcDbEntity
  8
0
100
AcDbBlockBegin
  2
*D1
 70
     1
 10
0.0
 20
0.0
 30
0.0
  3
*D1
  1

  0
LINE
  5
3A7
330
386
100
AcDbEntity
  8
0
 62
     0
440
 16777216
370
    -2
100
AcDbLine
 10
1266.131626703065
 20
1093.259845128864
 30
0.0
 11
1266.131626703065
 21
1057.905728854346
 31
0.0
  0
LINE
  5
3A8
330
386
100
AcDbEntity
  8
0
 62
     0
440
 16777216
370
    -2
100
AcDbLine
 10
1866.131626703065
 20
1093.259845128864
 30
0.0
 11
1866.131626703065
 21
1057.905728854346
 31
0.0
  0
LINE
  5
3A9
330
386
100
AcDbEntity
  8
0
 62
     0
440
 16777216
370
    -2
100
AcDbLine
 10
1276.131626703065
 20
1062.905728854347
 30
0.0
 11
1856.131626703065
 21
1062.905728854347
 31
0.0
  0
SOLID
  5
3AA
330
386
100
AcDbEntity
  8
0
 62
     0
440
 16777216
100
AcDbTrace
 10
1276.131626703065
 20
1064.572395521013
 30
0.0
 11
1276.131626703065
 21
1061.23906218768
 31
0.0
 12
1266.131626703065
 22
1062.905728854347
 32
0.0
 13
1266.131626703065
 23
1062.905728854347
 33
0.0
  0
SOLID
  5
3AB
330
386
100
AcDbEntity
  8
0
 62
     0
440
 16777216
100
AcDbTrace
 10
1856.131626703065
 20
1064.572395521013
 30
0.0
 11
1856.131626703065
 21
1061.23906218768
 31
0.0
 12
1866.131626703065
 22
1062.905728854347
 32
0.0
 13
1866.131626703065
 23
1062.905728854347
 33
0.0
  0
MTEXT
  5
3AC
330
386
100
AcDbEntity
  8
0
 62
     0
440
 16777216
100
AcDbMText
 10
1566.131626703065
 20
1070.511458731563
 30
0.0
 40
10.0
 41
0.0
 46
0.0
 71
     5
 72
     1
  1
600 mm
 73
     1
 44
1.0
  0
POINT
  5
3AD
330
386
100
AcDbEntity
  8
Defpoints
 62
     0
440
 16777216
100
AcDbPoint
 10
1266.131626703065
 20
1095.759845128864
 30
0.0
  0
POINT
  5
3AE
330
386
100
AcDbEntity
  8
Defpoints
 62
     0
440
 16777216
100
AcDbPoint
 10
1866.131626703065
 20
1095.759845128864
 30
0.0
  0
POINT
  5
3AF
330
386
100
AcDbEntity
  8
Defpoints
 62
     0
440
 16777216
100
AcDbPoint
 10
1866.131626703065
 20
1062.905728854347
 30
0.0
  0
ENDBLK
  5
388
330
386
100
AcDbEntity
  8
0
100
AcDbBlockEnd
  0
BLOCK
  5
40C
330
40B
100
AcDbEntity
  8
0
100
AcDbBlockBegin
  2
*D2
 70
     1
 10
0.0
 20
0.0
 30
0.0
  3
*D2
  1

  0
LINE
  5
696
330
40B
100
AcDbEntity
  8
0
 62
     0
440
 16777216
370
    -2
100
AcDbLine
 10
1266.131626703065
 20
903.6898229079296
 30
0.0
 11
1266.131626703065
 21
875.3357066334125
 31
0.0
  0
LINE
  5
697
330
40B
100
AcDbEntity
  8
0
 62
     0
440
 16777216
370
    -2
100
AcDbLine
 10
2716.131626703065
 20
903.6898229079296
 30
0.0
 11
2716.131626703065
 21
875.3357066334125
 31
0.0
  0
LINE
  5
698
330
40B
100
AcDbEntity
  8
0
 62
     0
440
 16777216
370
    -2
100
AcDbLine
 10
1276.131626703065
 20
880.3357066334124
 30
0.0
 11
2706.131626703065
 21
880.3357066334124
 31
0.0
  0
SOLID
  5
699
330
40B
100
AcDbEntity
  8
0
 62
     0
440
 16777216
100
AcDbTrace
 10
1276.131626703065
 20
882.0023733000791
 30
0.0
 11
1276.131626703065
 21
878.6690399667458
 31
0.0
 12
1266.131626703065
 22
880.3357066334124
 32
0.0
 13
1266.131626703065
 23
880.3357066334124
 33
0.0
  0
SOLID
  5
69A
330
40B
100
AcDbEntity
  8
0
 62
     0
440
 16777216
100
AcDbTrace
 10
2706.131626703065
 20
882.0023733000791
 30
0.0
 11
2706.131626703065
 21
878.6690399667458
 31
0.0
 12
2716.131626703065
 22
880.3357066334124
 32
0.0
 13
2716.131626703065
 23
880.3357066334124
 33
0.0
  0
MTEXT
  5
69B
330
40B
100
AcDbEntity
  8
0
 62
     0
440
 16777216
100
AcDbMText
 10
1991.131626703065
 20
887.9414365106294
 30
0.0
 40
10.0
 41
0.0
 46
0.0
 71
     5
 72
     1
  1
1450 mm
 73
     1
 44
1.0
  0
POINT
  5
69C
330
40B
100
AcDbEntity
  8
Defpoints
 62
     0
440
 16777216
100
AcDbPoint
 10
1266.131626703065
 20
906.1898229079297
 30
0.0
  0
POINT
  5
69D
330
40B
100
AcDbEntity
  8
Defpoints
 62
     0
440
 16777216
100
AcDbPoint
 10
2716.131626703065
 20
906.1898229079297
 30
0.0
  0
POINT
  5
69E
330
40B
100
AcDbEntity
  8
Defpoints
 62
     0
440
 16777216
100
AcDbPoint
 10
2716.131626703065
 20
880.3357066334124
 30
0.0
  0
ENDBLK
  5
40D
330
40B
100
AcDbEntity
  8
0
100
AcDbBlockEnd
  0
BLOCK
  5
66F
330
66E
100
AcDbEntity
  8
0
100
AcDbBlockBegin
  2
*D3
 70
     1
 10
0.0
 20
0.0
 30
0.0
  3
*D3
  1

  0
LINE
  5
774
330
66E
100
AcDbEntity
  8
0
 62
     0
440
 16777216
370
    -2
100
AcDbLine
 10
1266.131626703065
 20
426.8998575214791
 30
0.0
 11
1266.131626703065
 21
391.5457412469618
 31
0.0
  0
LINE
  5
775
330
66E
100
AcDbEntity
  8
0
 62
     0
440
 16777216
370
    -2
100
AcDbLine
 10
1866.131626703065
 20
426.8998575214791
 30
0.0
 11
1866.131626703065
 21
391.5457412469618
 31
0.0
  0
LINE
  5
776
330
66E
100
AcDbEntity
  8
0
 62
     0
440
 16777216
370
    -2
100
AcDbLine
 10
1276.131626703065
 20
396.5457412469618
 30
0.0
 11
1856.131626703065
 21
396.5457412469618
 31
0.0
  0
SOLID
  5
777
330
66E
100
AcDbEntity
  8
0
 62
     0
440
 16777216
100
AcDbTrace
 10
1276.131626703065
 20
398.2124079136285
 30
0.0
 11
1276.131626703065
 21
394.8790745802952
 31
0.0
 12
1266.131626703065
 22
396.5457412469618
 32
0.0
 13
1266.131626703065
 23
396.5457412469618
 33
0.0
  0
SOLID
  5
778
330
66E
100
AcDbEntity
  8
0
 62
     0
440
 16777216
100
AcDbTrace
 10
1856.131626703065
 20
398.2124079136285
 30
0.0
 11
1856.131626703065
 21
394.8790745802952
 31
0.0
 12
1866.131626703065
 22
396.5457412469618
 32
0.0
 13
1866.131626703065
 23
396.5457412469618
 33
0.0
  0
MTEXT
  5
779
330
66E
100
AcDbEntity
  8
0
 62
     0
440
 16777216
100
AcDbMText
 10
1566.131626703065
 20
404.1514711241787
 30
0.0
 40
10.0
 41
0.0
 46
0.0
 71
     5
 72
     1
  1
600 mm
 73
     1
 44
1.0
  0
POINT
  5
77A
330
66E
100
AcDbEntity
  8
Defpoints
 62
     0
440
 16777216
100
AcDbPoint
 10
1266.131626703065
 20
429.3998575214791
 30
0.0
  0
POINT
  5
77B
330
66E
100
AcDbEntity
  8
Defpoints
 62
     0
440
 16777216
100
AcDbPoint
 10
1866.131626703065
 20
429.3998575214791
 30
0.0
  0
POINT
  5
77C
330
66E
100
AcDbEntity
  8
Defpoints
 62
     0
440
 16777216
100
AcDbPoint
 10
1866.131626703065
 20
396.5457412469618
 30
0.0
  0
ENDBLK
  5
670
330
66E
100
AcDbEntity
  8
0
100
AcDbBlockEnd
  0
BLOCK
  5
75F
330
75E
100
AcDbEntity
  8
0
100
AcDbBlockBegin
  2
*D4
 70
     1
 10
0.0
 20
0.0
 30
0.0
  3
*D4
  1

  0
LINE
  5
76A
330
75E
100
AcDbEntity
  8
0
 62
     0
440
 16777216
370
    -2
100
AcDbLine
 10
1266.131626703065
 20
226.2618571189682
 30
0.0
 11
1266.131626703065
 21
197.9077408444509
 31
0.0
  0
LINE
  5
76B
330
75E
100
AcDbEntity
  8
0
 62
     0
440
 16777216
370
    -2
100
AcDbLine
 10
2716.131626703065
 20
226.2618571189682
 30
0.0
 11
2716.131626703065
 21
197.9077408444509
 31
0.0
  0
LINE
  5
76C
330
75E
100
AcDbEntity
  8
0
 62
     0
440
 16777216
370
    -2
100
AcDbLine
 10
1276.131626703065
 20
202.9077408444509
 30
0.0
 11
2706.131626703065
 21
202.9077408444509
 31
0.0
  0
SOLID
  5
76D
330
75E
100
AcDbEntity
  8
0
 62
     0
440
 16777216
100
AcDbTrace
 10
1276.131626703065
 20
204.5744075111176
 30
0.0
 11
1276.131626703065
 21
201.2410741777843
 31
0.0
 12
1266.131626703065
 22
202.9077408444509
 32
0.0
 13
1266.131626703065
 23
202.9077408444509
 33
0.0
  0
SOLID
  5
76E
330
75E
100
AcDbEntity
  8
0
 62
     0
440
 16777216
100
AcDbTrace
 10
2706.131626703065
 20
204.5744075111176
 30
0.0
 11
2706.131626703065
 21
201.2410741777843
 31
0.0
 12
2716.131626703065
 22
202.9077408444509
 32
0.0
 13
2716.131626703065
 23
202.9077408444509
 33
0.0
  0
MTEXT
  5
76F
330
75E
100
AcDbEntity
  8
0
 62
     0
440
 16777216
100
AcDbMText
 10
1991.131626703065
 20
210.5134707216679
 30
0.0
 40
10.0
 41
0.0
 46
0.0
 71
     5
 72
     1
  1
1450 mm
 73
     1
 44
1.0
  0
POINT
  5
770
330
75E
100
AcDbEntity
  8
Defpoints
 62
     0
440
 16777216
100
AcDbPoint
 10
1266.131626703065
 20
228.7618571189682
 30
0.0
  0
POINT
  5
771
330
75E
100
AcDbEntity
  8
Defpoints
 62
     0
440
 16777216
100
AcDbPoint
 10
2716.131626703065
 20
228.7618571189682
 30
0.0
  0
POINT
  5
772
330
75E
100
AcDbEntity
  8
Defpoints
 62
     0
440
 16777216
100
AcDbPoint
 10
2716.131626703065
 20
202.9077408444509
 30
0.0
  0
ENDBLK
  5
760
330
75E
100
AcDbEntity
  8
0
100
AcDbBlockEnd
  0
BLOCK
  5
7D6
330
7D5
100
AcDbEntity
  8
0
100
AcDbBlockBegin
  2
*D5
 70
     1
 10
0.0
 20
0.0
 30
0.0
  3
*D5
  1

  0
LINE
  5
948
330
7D5
100
AcDbEntity
  8
0
 62
     0
440
 16777216
370
    -2
100
AcDbLine
 10
1901.010458392401
 20
1112.121397622856
 30
0.0
 11
1901.010458392401
 21
1076.767281348338
 31
0.0
  0
LINE
  5
949
330
7D5
100
AcDbEntity
  8
0
 62
     0
440
 16777216
370
    -2
100
AcDbLine
 10
2801.010458392413
 20
1112.121397622856
 30
0.0
 11
2801.010458392413
 21
1076.767281348338
 31
0.0
  0
LINE
  5
94A
330
7D5
100
AcDbEntity
  8
0
 62
     0
440
 16777216
370
    -2
100
AcDbLine
 10
1911.010458392402
 20
1081.767281348338
 30
0.0
 11
2791.010458392413
 21
1081.767281348338
 31
0.0
  0
SOLID
  5
94B
330
7D5
100
AcDbEntity
  8
0
 62
     0
440
 16777216
100
AcDbTrace
 10
1911.010458392402
 20
1083.433948015005
 30
0.0
 11
1911.010458392402
 21
1080.100614681672
 31
0.0
 12
1901.010458392401
 22
1081.767281348338
 32
0.0
 13
1901.010458392401
 23
1081.767281348338
 33
0.0
  0
SOLID
  5
94C
330
7D5
100
AcDbEntity
  8
0
 62
     0
440
 16777216
100
AcDbTrace
 10
2791.010458392413
 20
1083.433948015005
 30
0.0
 11
2791.010458392413
 21
1080.100614681672
 31
0.0
 12
2801.010458392413
 22
1081.767281348338
 32
0.0
 13
2801.010458392413
 23
1081.767281348338
 33
0.0
  0
MTEXT
  5
94D
330
7D5
100
AcDbEntity
  8
0
 62
     0
440
 16777216
100
AcDbMText
 10
2351.010458392407
 20
1089.373011225555
 30
0.0
 40
10.0
 41
0.0
 46
0.0
 71
     5
 72
     1
  1
900 mm
 73
     1
 44
1.0
  0
POINT
  5
94E
330
7D5
100
AcDbEntity
  8
Defpoints
 62
     0
440
 16777216
100
AcDbPoint
 10
1901.010458392401
 20
1114.621397622856
 30
0.0
  0
POINT
  5
94F
330
7D5
100
AcDbEntity
  8
Defpoints
 62
     0
440
 16777216
100
AcDbPoint
 10
2801.010458392413
 20
1114.621397622856
 30
0.0
  0
POINT
  5
950
330
7D5
100
AcDbEntity
  8
Defpoints
 62
     0
440
 16777216
100
AcDbPoint
 10
2801.010458392413
 20
1081.767281348338
 30
0.0
  0
ENDBLK
  5
7D7
330
7D5
100
AcDbEntity
  8
0
100
AcDbBlockEnd
  0
BLOCK
  5
B66
330
B65
100
AcDbEntity
  8
0
100
AcDbBlockBegin
  2
*D7
 70
     1
 10
0.0
 20
0.0
 30
0.0
  3
*D7
  1

  0
LINE
  5
B71
330
B65
100
AcDbEntity
  8
0
 62
     0
440
 16777216
370
    -2
100
AcDbLine
 10
1901.010458392401
 20
434.6934318338942
 30
0.0
 11
1901.010458392401
 21
399.3393155593772
 31
0.0
  0
LINE
  5
B72
330
B65
100
AcDbEntity
  8
0
 62
     0
440
 16777216
370
    -2
100
AcDbLine
 10
2801.010458392413
 20
434.6934318338942
 30
0.0
 11
2801.010458392413
 21
399.3393155593772
 31
0.0
  0
LINE
  5
B73
330
B65
100
AcDbEntity
  8
0
 62
     0
440
 16777216
370
    -2
100
AcDbLine
 10
1911.010458392402
 20
404.3393155593771
 30
0.0
 11
2791.010458392413
 21
404.3393155593771
 31
0.0
  0
SOLID
  5
B74
330
B65
100
AcDbEntity
  8
0
 62
     0
440
 16777216
100
AcDbTrace
 10
1911.010458392402
 20
406.0059822260438
 30
0.0
 11
1911.010458392402
 21
402.6726488927105
 31
0.0
 12
1901.010458392401
 22
404.3393155593771
 32
0.0
 13
1901.010458392401
 23
404.3393155593771
 33
0.0
  0
SOLID
  5
B75
330
B65
100
AcDbEntity
  8
0
 62
     0
440
 16777216
100
AcDbTrace
 10
2791.010458392413
 20
406.0059822260438
 30
0.0
 11
2791.010458392413
 21
402.6726488927105
 31
0.0
 12
2801.010458392413
 22
404.3393155593771
 32
0.0
 13
2801.010458392413
 23
404.3393155593771
 33
0.0
  0
MTEXT
  5
B76
330
B65
100
AcDbEntity
  8
0
 62
     0
440
 16777216
100
AcDbMText
 10
2351.010458392407
 20
411.945045436594
 30
0.0
 40
10.0
 41
0.0
 46
0.0
 71
     5
 72
     1
  1
900 mm
 73
     1
 44
1.0
  0
POINT
  5
B77
330
B65
100
AcDbEntity
  8
Defpoints
 62
     0
440
 16777216
100
AcDbPoint
 10
1901.010458392401
 20
437.1934318338942
 30
0.0
  0
POINT
  5
B78
330
B65
100
AcDbEntity
  8
Defpoints
 62
     0
440
 16777216
100
AcDbPoint
 10
2801.010458392413
 20
437.1934318338942
 30
0.0
  0
POINT
  5
B79
330
B65
100
AcDbEntity
  8
Defpoints
 62
     0
440
 16777216
100
AcDbPoint
 10
2801.010458392413
 20
404.3393155593771
 30
0.0
  0
ENDBLK
  5
B67
330
B65
100
AcDbEntity
  8
0
100
AcDbBlockEnd
  0
ENDSEC
  0
SECTION
  2
ENTITIES
  0
LINE
  5
240
102
{ACAD_REACTORS
330
48B
102
}
330
1F
100
AcDbEntity
  8
0
100
AcDbLine
 10
1266.131626703065
 20
1177.759845128863
 30
0.0
 11
1503.768523440776
 21
1177.759845128863
 31
0.0
  0
LINE
  5
241
102
{ACAD_REACTORS
330
48B
102
}
330
1F
100
AcDbEntity
  8
0
100
AcDbLine
 10
1266.131626703065
 20
1095.759845128864
 30
0.0
 11
1489.309711022682
 21
1095.759845128864
 31
0.0
  0
LINE
  5
242
102
{ACAD_REACTORS
330
48B
102
}
330
1F
100
AcDbEntity
  8
0
100
AcDbLine
 10
1266.131626703065
 20
1164.259845128864
 30
0.0
 11
1501.388109201212
 21
1164.259845128863
 31
0.0
  0
LINE
  5
243
102
{ACAD_REACTORS
330
48B
102
}
330
1F
100
AcDbEntity
  8
0
100
AcDbLine
 10
1266.131626703065
 20
1109.259845128863
 30
0.0
 11
1491.690125262247
 21
1109.259845128864
 31
0.0
  0
LINE
  5
24D
102
{ACAD_REACTORS
330
48B
102
}
330
1F
100
AcDbEntity
  8
0
100
AcDbLine
 10
1501.388109201212
 20
1164.259845128863
 30
0.0
 11
1503.768523440776
 21
1177.759845128863
 31
0.0
  0
LINE
  5
24E
102
{ACAD_REACTORS
330
48B
102
}
330
1F
100
AcDbEntity
  8
0
100
AcDbLine
 10
1491.690125262246
 20
1109.259845128864
 30
0.0
 11
1489.309711022682
 21
1095.759845128864
 31
0.0
  0
LINE
  5
24F
102
{ACAD_REACTORS
330
48B
102
}
330
1F
100
AcDbEntity
  8
0
100
AcDbLine
 10
1500.479403753424
 20
1095.759845128864
 30
0.0
 11
1514.93821617152
 21
1177.759845128863
 31
0.0
  0
LINE
  5
250
102
{ACAD_REACTORS
330
48B
102
}
330
1F
100
AcDbEntity
  8
0
100
AcDbLine
 10
1545.96183446697
 20
1103.197011529861
 30
0.0
 11
1550.120827943055
 21
1126.783835618695
 31
0.0
  0
LINE
  5
251
102
{ACAD_REACTORS
330
48B
102
}
330
1F
100
AcDbEntity
  8
0
100
AcDbLine
 10
1514.93821617152
 20
1177.759845128863
 30
0.0
 11
1548.383491455202
 21
1177.759845128863
 31
0.0
  0
LINE
  5
252
102
{ACAD_REACTORS
330
48B
102
}
330
1F
100
AcDbEntity
  8
0
100
AcDbLine
 10
1500.479403753424
 20
1095.759845128864
 30
0.0
 11
1537.09856468986
 21
1095.759845128864
 31
0.0
  0
ARC
  5
253
102
{ACAD_REACTORS
330
48B
102
}
330
1F
100
AcDbEntity
  8
0
100
AcDbCircle
 10
1548.383491455202
 20
1168.759845128863
 30
0.0
 40
9.0
100
AcDbArc
 50
349.9999999999998
 51
90.0
  0
ARC
  5
254
102
{ACAD_REACTORS
330
48B
102
}
330
1F
100
AcDbEntity
  8
0
100
AcDbCircle
 10
1537.09856468986
 20
1104.759845128864
 30
0.0
 40
9.0
100
AcDbArc
 50
270.0
 51
349.9999999999998
  0
LINE
  5
255
102
{ACAD_REACTORS
330
48B
102
}
330
1F
100
AcDbEntity
  8
0
100
AcDbLine
 10
1526.266061192413
 20
1164.259845128863
 30
0.0
 11
1539.445339510745
 21
1164.259845128863
 31
0.0
  0
LINE
  5
256
102
{ACAD_REACTORS
330
48B
102
}
330
1F
100
AcDbEntity
  8
0
100
AcDbLine
 10
1516.568077253446
 20
1109.259845128864
 30
0.0
 11
1520.226862103148
 21
1130.009845128864
 31
0.0
  0
LINE
  5
257
102
{ACAD_REACTORS
330
48B
102
}
330
1F
100
AcDbEntity
  8
0
100
AcDbLine
 10
1533.759740715067
 20
1111.738900595863
 30
0.0
 11
1536.360563680517
 21
1126.488900595863
 31
0.0
  0
LINE
  5
258
102
{ACAD_REACTORS
330
48B
102
}
330
1F
100
AcDbEntity
  8
0
100
AcDbLine
 10
1516.568077253446
 20
1109.259845128864
 30
0.0
 11
1530.80531745603
 21
1109.259845128864
 31
0.0
  0
ARC
  5
259
102
{ACAD_REACTORS
330
48B
102
}
330
1F
100
AcDbEntity
  8
0
100
AcDbCircle
 10
1530.80531745603
 20
1112.259845128864
 30
0.0
 40
3.0
100
AcDbArc
 50
270.0
 51
349.9999999999998
  0
ARC
  5
25A
102
{ACAD_REACTORS
330
48B
102
}
330
1F
100
AcDbEntity
  8
0
100
AcDbCircle
 10
1539.445339510745
 20
1161.259845128864
 30
0.0
 40
3.0
100
AcDbArc
 50
349.9999999999998
 51
90.0
  0
LINE
  5
25E
102
{ACAD_REACTORS
330
48B
102
}
330
1F
100
AcDbEntity
  8
0
100
AcDbLine
 10
1553.191240676017
 20
1144.197011529861
 30
0.0
 11
1557.246761232311
 21
1167.197011529861
 31
0.0
  0
LINE
  5
25F
102
{ACAD_REACTORS
330
48B
102
}
330
1F
100
AcDbEntity
  8
0
100
AcDbLine
 10
1539.798939804332
 20
1145.988900595863
 30
0.0
 11
1542.399762769782
 21
1160.738900595863
 31
0.0
  0
LINE
  5
260
102
{ACAD_REACTORS
330
48B
102
}
330
1F
100
AcDbEntity
  8
0
100
AcDbLine
 10
1522.607276342712
 20
1143.509845128863
 30
0.0
 11
1526.266061192413
 21
1164.259845128863
 31
0.0
  0
LINE
  5
263
102
{ACAD_REACTORS
330
48B
102
}
330
1F
100
AcDbEntity
  8
0
100
AcDbLine
 10
1541.749962042452
 20
1136.759845128864
 30
0.0
 11
1544.327970898907
 21
1136.759845128864
 31
0.0
  0
ARC
  5
264
102
{ACAD_REACTORS
330
48B
102
}
330
1F
100
AcDbEntity
  8
0
100
AcDbCircle
 10
1544.327970898907
 20
1145.759845128864
 30
0.0
 40
9.0
100
AcDbArc
 50
270.0
 51
350.0000000000002
  0
ARC
  5
267
102
{ACAD_REACTORS
330
48B
102
}
330
1F
100
AcDbEntity
  8
0
100
AcDbCircle
 10
1541.749962042452
 20
1128.259845128864
 30
0.0
 40
8.5
100
AcDbArc
 50
349.9999999999998
 51
90.0
  0
LINE
  5
268
102
{ACAD_REACTORS
330
48B
102
}
330
1F
100
AcDbEntity
  8
0
100
AcDbLine
 10
1570.278966519293
 20
1177.759845128863
 30
0.0
 11
1866.131626703065
 21
1177.759845128863
 31
0.0
  0
LINE
  5
269
102
{ACAD_REACTORS
330
48B
102
}
330
1F
100
AcDbEntity
  8
0
100
AcDbLine
 10
1567.898552279729
 20
1164.259845128863
 30
0.0
 11
1866.131626703065
 21
1164.259845128863
 31
0.0
  0
LINE
  5
26C
102
{ACAD_REACTORS
330
48B
102
}
330
1F
100
AcDbEntity
  8
0
100
AcDbLine
 10
1680.559475072995
 20
1109.259845128864
 30
0.0
 11
1866.131626703065
 21
1109.259845128863
 31
0.0
  0
LINE
  5
26D
102
{ACAD_REACTORS
330
39C
330
48B
102
}
330
1F
100
AcDbEntity
  8
0
100
AcDbLine
 10
1678.17906083343
 20
1095.759845128864
 30
0.0
 11
1866.131626703065
 21
1095.759845128864
 31
0.0
  0
LINE
  5
26F
102
{ACAD_REACTORS
330
48B
102
}
330
1F
100
AcDbEntity
  8
0
100
AcDbLine
 10
1567.898552279728
 20
1164.259845128863
 30
0.0
 11
1570.278966519293
 21
1177.759845128863
 31
0.0
  0
LINE
  5
273
102
{ACAD_REACTORS
330
48B
102
}
330
1F
100
AcDbEntity
  8
0
100
AcDbLine
 10
1266.131626703065
 20
1143.509845128864
 30
0.0
 11
1497.729324351511
 21
1143.509845128864
 31
0.0
  0
LINE
  5
274
102
{ACAD_REACTORS
330
48B
102
}
330
1F
100
AcDbEntity
  8
0
100
AcDbLine
 10
1266.131626703065
 20
1130.009845128864
 30
0.0
 11
1495.348910111947
 21
1130.009845128864
 31
0.0
  0
LINE
  5
275
102
{ACAD_REACTORS
330
48B
102
}
330
1F
100
AcDbEntity
  8
0
100
AcDbLine
 10
1495.348910111947
 20
1130.009845128864
 30
0.0
 11
1497.729324351512
 21
1143.509845128864
 31
0.0
  0
LINE
  5
276
102
{ACAD_REACTORS
330
48B
102
}
330
1F
100
AcDbEntity
  8
0
100
AcDbLine
 10
1520.226862103148
 20
1130.009845128864
 30
0.0
 11
1533.40614042148
 21
1130.009845128864
 31
0.0
  0
LINE
  5
277
102
{ACAD_REACTORS
330
48B
102
}
330
1F
100
AcDbEntity
  8
0
100
AcDbLine
 10
1522.607276342711
 20
1143.509845128864
 30
0.0
 11
1536.844516545295
 21
1143.509845128864
 31
0.0
  0
ARC
  5
278
102
{ACAD_REACTORS
330
48B
102
}
330
1F
100
AcDbEntity
  8
0
100
AcDbCircle
 10
1536.844516545295
 20
1146.509845128864
 30
0.0
 40
3.0
100
AcDbArc
 50
270.0
 51
350.0000000000003
  0
ARC
  5
279
102
{ACAD_REACTORS
330
48B
102
}
330
1F
100
AcDbEntity
  8
0
100
AcDbCircle
 10
1533.40614042148
 20
1127.009845128864
 30
0.0
 40
3.0
100
AcDbArc
 50
349.9999999999994
 51
89.99999999999994
  0
LINE
  5
27A
102
{ACAD_REACTORS
330
48B
102
}
330
1F
100
AcDbEntity
  8
0
100
AcDbLine
 10
1686.59867416226
 20
1143.509845128864
 30
0.0
 11
1866.131626703065
 21
1143.509845128864
 31
0.0
  0
LINE
  5
27B
102
{ACAD_REACTORS
330
48B
102
}
330
1F
100
AcDbEntity
  8
0
100
AcDbLine
 10
1684.218259922695
 20
1130.009845128864
 30
0.0
 11
1866.131626703065
 21
1130.009845128864
 31
0.0
  0
LINE
  5
27D
102
{ACAD_REACTORS
330
48B
102
}
330
1F
100
AcDbEntity
  8
0
100
AcDbLine
 10
1678.17906083343
 20
1095.759845128864
 30
0.0
 11
1680.559475072995
 21
1109.259845128864
 31
0.0
  0
LINE
  5
27E
102
{ACAD_REACTORS
330
48B
102
}
330
1F
100
AcDbEntity
  8
0
100
AcDbLine
 10
1684.218259922695
 20
1130.009845128864
 30
0.0
 11
1686.59867416226
 21
1143.509845128864
 31
0.0
  0
LINE
  5
281
102
{ACAD_REACTORS
330
48B
102
}
330
1F
100
AcDbEntity
  8
0
100
AcDbLine
 10
1564.239767430027
 20
1143.509845128864
 30
0.0
 11
1576.932600078599
 21
1143.509845128864
 31
0.0
  0
LINE
  5
282
330
1F
100
AcDbEntity
  8
0
100
AcDbLine
 10
1568.512986749769
 20
1095.759845128864
 30
0.0
 11
1555.820154101197
 21
1095.759845128864
 31
0.0
  0
LINE
  5
283
102
{ACAD_REACTORS
330
48B
102
}
330
1F
100
AcDbEntity
  8
0
100
AcDbLine
 10
1558.024241360054
 20
1108.259845128864
 30
0.0
 11
1564.239767430027
 21
1143.509845128864
 31
0.0
  0
LINE
  5
285
102
{ACAD_REACTORS
330
48B
102
}
330
1F
100
AcDbEntity
  8
0
100
AcDbLine
 10
1564.768748372153
 20
1146.509845128864
 30
0.0
 11
1577.461581020725
 21
1146.509845128864
 31
0.0
  0
LINE
  5
286
102
{ACAD_REACTORS
330
48B
102
}
330
1F
100
AcDbEntity
  8
0
100
AcDbLine
 10
1566.708345159946
 20
1157.509845128864
 30
0.0
 11
1579.401177808518
 21
1157.509845128864
 31
0.0
  0
LINE
  5
287
102
{ACAD_REACTORS
330
48B
102
}
330
1F
100
AcDbEntity
  8
0
100
AcDbLine
 10
1564.768748372153
 20
1146.509845128864
 30
0.0
 11
1566.708345159946
 21
1157.509845128864
 31
0.0
  0
LINE
  5
29D
102
{ACAD_REACTORS
330
48B
102
}
330
1F
100
AcDbEntity
  8
0
100
AcDbLine
 10
1545.035818623054
 20
1095.759845128864
 30
0.0
 11
1659.457471422092
 21
1095.759845128864
 31
0.0
  0
LINE
  5
2A6
102
{ACAD_REACTORS
330
48B
102
}
330
1F
100
AcDbEntity
  8
0
100
AcDbLine
 10
1595.654189489938
 20
1143.509845128864
 30
0.0
 11
1615.45500842171
 21
1143.509845128864
 31
0.0
  0
LINE
  5
2AA
102
{ACAD_REACTORS
330
48B
102
}
330
1F
100
AcDbEntity
  8
0
100
AcDbLine
 10
1570.717074008626
 20
1108.259845128864
 30
0.0
 11
1576.932600078599
 21
1143.509845128864
 31
0.0
  0
LINE
  5
2AB
102
{ACAD_REACTORS
330
48B
102
}
330
1F
100
AcDbEntity
  8
0
100
AcDbLine
 10
1577.461581020725
 20
1146.509845128864
 30
0.0
 11
1579.401177808518
 21
1157.509845128864
 31
0.0
  0
LINE
  5
2AC
102
{ACAD_REACTORS
330
48B
102
}
330
1F
100
AcDbEntity
  8
0
100
AcDbLine
 10
1581.886766739368
 20
1108.259845128864
 30
0.0
 11
1586.790919712828
 21
1136.072678727866
 31
0.0
  0
LINE
  5
2AD
102
{ACAD_REACTORS
330
48B
102
}
330
1F
100
AcDbEntity
  8
0
100
AcDbLine
 10
1595.200436906687
 20
1111.780789661865
 30
0.0
 11
1598.153913833554
 21
1128.530789661865
 31
0.0
  0
LINE
  5
2AE
102
{ACAD_REACTORS
330
48B
102
}
330
1F
100
AcDbEntity
  8
0
100
AcDbLine
 10
1607.709556402017
 20
1110.738900595863
 30
0.0
 11
1610.663033328884
 21
1127.488900595863
 31
0.0
  0
LINE
  5
2AF
102
{ACAD_REACTORS
330
48B
102
}
330
1F
100
AcDbEntity
  8
0
100
AcDbLine
 10
1619.965264685085
 20
1108.259845128864
 30
0.0
 11
1624.31827819882
 21
1132.947011529861
 31
0.0
  0
ARC
  5
2B4
102
{ACAD_REACTORS
330
48B
102
}
330
1F
100
AcDbEntity
  8
0
100
AcDbCircle
 10
1595.654189489938
 20
1134.509845128864
 30
0.0
 40
9.0
100
AcDbArc
 50
90.0
 51
169.9999999999989
  0
ARC
  5
2B5
102
{ACAD_REACTORS
330
48B
102
}
330
1F
100
AcDbEntity
  8
0
100
AcDbCircle
 10
1615.45500842171
 20
1134.509845128864
 30
0.0
 40
9.0
100
AcDbArc
 50
349.9999999999989
 51
90.0
  0
LINE
  5
2B6
102
{ACAD_REACTORS
330
48B
102
}
330
1F
100
AcDbEntity
  8
0
100
AcDbLine
 10
1601.10833709259
 20
1131.009845128864
 30
0.0
 11
1607.708610069848
 21
1131.009845128864
 31
0.0
  0
LINE
  5
2B7
102
{ACAD_REACTORS
330
48B
102
}
330
1F
100
AcDbEntity
  8
0
100
AcDbLine
 10
1598.154860165723
 20
1108.259845128864
 30
0.0
 11
1604.755133142981
 21
1108.259845128864
 31
0.0
  0
ARC
  5
2B8
102
{ACAD_REACTORS
330
48B
102
}
330
1F
100
AcDbEntity
  8
0
100
AcDbCircle
 10
1601.10833709259
 20
1128.009845128864
 30
0.0
 40
3.0
100
AcDbArc
 50
90.0
 51
169.9999999999989
  0
ARC
  5
2B9
102
{ACAD_REACTORS
330
48B
102
}
330
1F
100
AcDbEntity
  8
0
100
AcDbCircle
 10
1607.708610069848
 20
1128.009845128864
 30
0.0
 40
3.0
100
AcDbArc
 50
349.9999999999989
 51
90.0
  0
ARC
  5
2BA
102
{ACAD_REACTORS
330
48B
102
}
330
1F
100
AcDbEntity
  8
0
100
AcDbCircle
 10
1604.755133142981
 20
1111.259845128864
 30
0.0
 40
3.0
100
AcDbArc
 50
270.0
 51
349.9999999999986
  0
ARC
  5
2BB
102
{ACAD_REACTORS
330
48B
102
}
330
1F
100
AcDbEntity
  8
0
100
AcDbCircle
 10
1598.154860165723
 20
1111.259845128864
 30
0.0
 40
3.0
100
AcDbArc
 50
169.9999999999986
 51
270.0
  0
LINE
  5
2BC
102
{ACAD_REACTORS
330
48B
102
}
330
1F
100
AcDbEntity
  8
0
100
AcDbLine
 10
1581.886766739368
 20
1108.259845128864
 30
0.0
 11
1570.717074008626
 21
1108.259845128864
 31
0.0
  0
LINE
  5
2BD
102
{ACAD_REACTORS
330
48B
102
}
330
1F
100
AcDbEntity
  8
0
100
AcDbLine
 10
1558.024241360054
 20
1108.259845128864
 30
0.0
 11
1549.900828464968
 21
1108.259845128864
 31
0.0
  0
LINE
  5
2BE
102
{ACAD_REACTORS
330
48B
102
}
330
1F
100
AcDbEntity
  8
0
100
AcDbLine
 10
1548.916257726006
 20
1102.676066996861
 30
0.0
 11
1549.900828464968
 21
1108.259845128864
 31
0.0
  0
ARC
  5
2BF
102
{ACAD_REACTORS
330
48B
102
}
330
1F
100
AcDbEntity
  8
0
100
AcDbCircle
 10
1537.09856468986
 20
1104.759845128864
 30
0.0
 40
12.0
100
AcDbArc
 50
311.4096221092729
 51
349.9999999999998
  0
LINE
  5
2C0
102
{ACAD_REACTORS
330
48B
102
}
330
1F
100
AcDbEntity
  8
0
100
AcDbLine
 10
1647.403050842182
 20
1108.259845128864
 30
0.0
 11
1654.00332381944
 21
1108.259845128864
 31
0.0
  0
LINE
  5
2C1
102
{ACAD_REACTORS
330
48B
102
}
330
1F
100
AcDbEntity
  8
0
100
AcDbLine
 10
1631.134957415828
 20
1108.259845128864
 30
0.0
 11
1636.039110389287
 21
1136.072678727866
 31
0.0
  0
LINE
  5
2C2
102
{ACAD_REACTORS
330
48B
102
}
330
1F
100
AcDbEntity
  8
0
100
AcDbLine
 10
1644.448627583146
 20
1111.780789661865
 30
0.0
 11
1647.402104510012
 21
1128.530789661865
 31
0.0
  0
LINE
  5
2C3
102
{ACAD_REACTORS
330
48B
102
}
330
1F
100
AcDbEntity
  8
0
100
AcDbLine
 10
1656.957747078476
 20
1110.738900595863
 30
0.0
 11
1659.911224005343
 21
1127.488900595863
 31
0.0
  0
LINE
  5
2C4
102
{ACAD_REACTORS
330
48B
102
}
330
1F
100
AcDbEntity
  8
0
100
AcDbLine
 10
1668.320741199202
 20
1103.197011529862
 30
0.0
 11
1677.897559161436
 21
1157.509845128864
 31
0.0
  0
LINE
  5
2C5
102
{ACAD_REACTORS
330
48B
102
}
330
1F
100
AcDbEntity
  8
0
100
AcDbLine
 10
1644.902380166397
 20
1143.509845128864
 30
0.0
 11
1662.828005359566
 21
1143.509845128864
 31
0.0
  0
LINE
  5
2C6
102
{ACAD_REACTORS
330
48B
102
}
330
1F
100
AcDbEntity
  8
0
100
AcDbLine
 10
1650.356527769049
 20
1131.009845128864
 30
0.0
 11
1656.956800746306
 21
1131.009845128864
 31
0.0
  0
ARC
  5
2C7
102
{ACAD_REACTORS
330
48B
102
}
330
1F
100
AcDbEntity
  8
0
100
AcDbCircle
 10
1650.356527769049
 20
1128.009845128864
 30
0.0
 40
3.0
100
AcDbArc
 50
90.0
 51
169.9999999999995
  0
ARC
  5
2C8
102
{ACAD_REACTORS
330
48B
102
}
330
1F
100
AcDbEntity
  8
0
100
AcDbCircle
 10
1656.956800746306
 20
1128.009845128864
 30
0.0
 40
3.0
100
AcDbArc
 50
349.9999999999996
 51
90.0
  0
ARC
  5
2C9
102
{ACAD_REACTORS
330
48B
102
}
330
1F
100
AcDbEntity
  8
0
100
AcDbCircle
 10
1654.00332381944
 20
1111.259845128864
 30
0.0
 40
3.0
100
AcDbArc
 50
270.0
 51
349.9999999999998
  0
ARC
  5
2CA
102
{ACAD_REACTORS
330
48B
102
}
330
1F
100
AcDbEntity
  8
0
100
AcDbCircle
 10
1647.403050842182
 20
1111.259845128864
 30
0.0
 40
3.0
100
AcDbArc
 50
169.9999999999997
 51
270.0
  0
LINE
  5
2CB
102
{ACAD_REACTORS
330
48B
102
}
330
1F
100
AcDbEntity
  8
0
100
AcDbLine
 10
1619.965264685085
 20
1108.259845128864
 30
0.0
 11
1631.134957415828
 21
1108.259845128864
 31
0.0
  0
ARC
  5
2CC
102
{ACAD_REACTORS
330
48B
102
}
330
1F
100
AcDbEntity
  8
0
100
AcDbCircle
 10
1644.902380166397
 20
1134.509845128864
 30
0.0
 40
9.0
100
AcDbArc
 50
90.0
 51
170.0
  0
LINE
  5
2CD
102
{ACAD_REACTORS
330
48B
102
}
330
1F
100
AcDbEntity
  8
0
100
AcDbLine
 10
1665.296583089484
 20
1157.509845128864
 30
0.0
 11
1677.897559161436
 21
1157.509845128864
 31
0.0
  0
LINE
  5
2CE
102
{ACAD_REACTORS
330
48B
102
}
330
1F
100
AcDbEntity
  8
0
100
AcDbLine
 10
1662.828005359566
 20
1143.509845128864
 30
0.0
 11
1665.296583089484
 21
1157.509845128864
 31
0.0
  0
ARC
  5
2CF
102
{ACAD_REACTORS
330
48B
102
}
330
1F
100
AcDbEntity
  8
0
100
AcDbCircle
 10
1659.457471422092
 20
1104.759845128864
 30
0.0
 40
9.0
100
AcDbArc
 50
270.0
 51
349.9999999999994
  0
LINE
  5
37E
102
{ACAD_REACTORS
330
48B
102
}
330
1F
100
AcDbEntity
  8
0
100
AcDbLine
 10
1266.131626703065
 20
1177.759845128863
 30
0.0
 11
1266.131626703065
 21
1164.259845128864
 31
0.0
  0
LINE
  5
37F
102
{ACAD_REACTORS
330
48B
102
}
330
1F
100
AcDbEntity
  8
0
100
AcDbLine
 10
1866.131626703065
 20
1177.759845128863
 30
0.0
 11
1866.131626703065
 21
1164.259845128863
 31
0.0
  0
LINE
  5
380
102
{ACAD_REACTORS
330
39C
330
48B
102
}
330
1F
100
AcDbEntity
  8
0
100
AcDbLine
 10
1866.131626703065
 20
1109.259845128863
 30
0.0
 11
1866.131626703065
 21
1095.759845128864
 31
0.0
  0
LINE
  5
381
102
{ACAD_REACTORS
330
48B
102
}
330
1F
100
AcDbEntity
  8
0
100
AcDbLine
 10
1866.131626703065
 20
1143.509845128864
 30
0.0
 11
1866.131626703065
 21
1130.009845128864
 31
0.0
  0
LINE
  5
382
102
{ACAD_REACTORS
330
39C
330
48B
102
}
330
1F
100
AcDbEntity
  8
0
100
AcDbLine
 10
1266.131626703065
 20
1109.259845128863
 30
0.0
 11
1266.131626703065
 21
1095.759845128864
 31
0.0
  0
LINE
  5
383
102
{ACAD_REACTORS
330
48B
102
}
330
1F
100
AcDbEntity
  8
0
100
AcDbLine
 10
1266.131626703065
 20
1143.509845128864
 30
0.0
 11
1266.131626703065
 21
1130.009845128864
 31
0.0
  0
DIMENSION
  5
385
102
{ACAD_XDICTIONARY
360
392
102
}
102
{ACAD_REACTORS
330
39C
102
}
330
1F
100
AcDbEntity
  8
0
100
AcDbDimension
280
     0
  2
*D1
 10
1866.131626703065
 20
1062.905728854347
 30
0.0
 11
1566.131626703065
 21
1070.511458731563
 31
0.0
 70
    32
  1
<> mm
 71
     5
 42
600.0000000000002
 73
     0
 74
     0
 75
     0
  3
ISO-25
100
AcDbAlignedDimension
 13
1266.131626703065
 23
1095.759845128864
 33
0.0
 14
1866.131626703065
 24
1095.759845128864
 34
0.0
100
AcDbRotatedDimension
  0
LINE
  5
3B0
102
{ACAD_REACTORS
330
5ED
330
700
102
}
330
1F
100
AcDbEntity
  8
0
100
AcDbLine
 10
1266.131626703065
 20
913.1898229079297
 30
0.0
 11
1489.309711022682
 21
913.1898229079297
 31
0.0
  0
LINE
  5
3B1
102
{ACAD_REACTORS
330
5ED
330
700
102
}
330
1F
100
AcDbEntity
  8
0
100
AcDbLine
 10
1266.131626703065
 20
926.6898229079293
 30
0.0
 11
1491.690125262247
 21
926.6898229079295
 31
0.0
  0
LINE
  5
3B2
102
{ACAD_REACTORS
330
5ED
330
700
102
}
330
1F
100
AcDbEntity
  8
0
100
AcDbLine
 10
1266.131626703065
 20
995.1898229079288
 30
0.0
 11
1503.768523440776
 21
995.1898229079292
 31
0.0
  0
LINE
  5
3B3
102
{ACAD_REACTORS
330
5ED
330
700
102
}
330
1F
100
AcDbEntity
  8
0
100
AcDbLine
 10
1266.131626703065
 20
981.6898229079296
 30
0.0
 11
1501.388109201212
 21
981.689822907929
 31
0.0
  0
LINE
  5
3B4
102
{ACAD_REACTORS
330
5ED
330
700
102
}
330
1F
100
AcDbEntity
  8
0
100
AcDbLine
 10
1501.388109201212
 20
981.6898229079292
 30
0.0
 11
1503.768523440776
 21
995.189822907929
 31
0.0
  0
LINE
  5
3B5
102
{ACAD_REACTORS
330
5ED
330
700
102
}
330
1F
100
AcDbEntity
  8
0
100
AcDbLine
 10
1500.479403753424
 20
913.1898229079297
 30
0.0
 11
1514.93821617152
 21
995.1898229079292
 31
0.0
  0
LINE
  5
3B6
102
{ACAD_REACTORS
330
60F
330
5ED
330
700
102
}
330
1F
100
AcDbEntity
  8
0
100
AcDbLine
 10
1516.568077253446
 20
926.6898229079297
 30
0.0
 11
1520.226862103148
 21
947.4398229079294
 31
0.0
  0
LINE
  5
3B7
102
{ACAD_REACTORS
330
60F
330
5ED
330
700
102
}
330
1F
100
AcDbEntity
  8
0
100
AcDbLine
 10
1522.607276342712
 20
960.9398229079292
 30
0.0
 11
1526.266061192413
 21
981.6898229079292
 31
0.0
  0
LINE
  5
3B8
102
{ACAD_REACTORS
330
5ED
330
700
102
}
330
1F
100
AcDbEntity
  8
0
100
AcDbLine
 10
1545.96183446697
 20
920.6269893089272
 30
0.0
 11
1550.120827943055
 21
944.2138133977605
 31
0.0
  0
LINE
  5
3B9
102
{ACAD_REACTORS
330
5ED
330
700
102
}
330
1F
100
AcDbEntity
  8
0
100
AcDbLine
 10
1548.916257726006
 20
920.1060447759264
 30
0.0
 11
1549.900828464968
 21
925.6898229079304
 31
0.0
  0
LINE
  5
3BA
102
{ACAD_REACTORS
330
5ED
330
700
102
}
330
1F
100
AcDbEntity
  8
0
100
AcDbLine
 10
1553.191240676017
 20
961.6269893089272
 30
0.0
 11
1557.246761232311
 21
984.6269893089267
 31
0.0
  0
ARC
  5
3BB
102
{ACAD_REACTORS
330
5ED
330
700
102
}
330
1F
100
AcDbEntity
  8
0
100
AcDbCircle
 10
1544.327970898907
 20
963.1898229079295
 30
0.0
 40
9.0
100
AcDbArc
 50
270.0
 51
349.9999999999998
  0
LINE
  5
3BC
102
{ACAD_REACTORS
330
60F
330
5ED
330
700
102
}
330
1F
100
AcDbEntity
  8
0
100
AcDbLine
 10
1533.759740715067
 20
929.168878374929
 30
0.0
 11
1536.360563680517
 21
943.9188783749287
 31
0.0
  0
ARC
  5
3BD
102
{ACAD_REACTORS
330
60F
330
5ED
330
700
102
}
330
1F
100
AcDbEntity
  8
0
100
AcDbCircle
 10
1533.40614042148
 20
944.4398229079295
 30
0.0
 40
3.0
100
AcDbArc
 50
349.9999999999998
 51
89.99999999999994
  0
LINE
  5
3BE
102
{ACAD_REACTORS
330
60F
330
5ED
330
700
102
}
330
1F
100
AcDbEntity
  8
0
100
AcDbLine
 10
1539.798939804332
 20
963.4188783749287
 30
0.0
 11
1542.399762769782
 21
978.1688783749284
 31
0.0
  0
ARC
  5
3BF
102
{ACAD_REACTORS
330
60F
330
5ED
330
700
102
}
330
1F
100
AcDbEntity
  8
0
100
AcDbCircle
 10
1536.844516545295
 20
963.9398229079295
 30
0.0
 40
3.0
100
AcDbArc
 50
270.0
 51
349.9999999999998
  0
ARC
  5
3C0
102
{ACAD_REACTORS
330
60F
330
5ED
330
700
102
}
330
1F
100
AcDbEntity
  8
0
100
AcDbCircle
 10
1530.80531745603
 20
929.6898229079298
 30
0.0
 40
3.0
100
AcDbArc
 50
270.0
 51
349.9999999999998
  0
LINE
  5
3C1
102
{ACAD_REACTORS
330
5ED
330
700
102
}
330
1F
100
AcDbEntity
  8
0
100
AcDbLine
 10
1491.690125262246
 20
926.6898229079295
 30
0.0
 11
1489.309711022682
 21
913.1898229079297
 31
0.0
  0
LINE
  5
3C2
102
{ACAD_REACTORS
330
5ED
330
700
102
}
330
1F
100
AcDbEntity
  8
0
100
AcDbLine
 10
1514.93821617152
 20
995.1898229079292
 30
0.0
 11
1548.383491455202
 21
995.1898229079292
 31
0.0
  0
LINE
  5
3C3
102
{ACAD_REACTORS
330
60F
330
5ED
330
700
102
}
330
1F
100
AcDbEntity
  8
0
100
AcDbLine
 10
1526.266061192413
 20
981.6898229079292
 30
0.0
 11
1539.445339510745
 21
981.6898229079292
 31
0.0
  0
ARC
  5
3C4
102
{ACAD_REACTORS
330
60F
330
5ED
330
700
102
}
330
1F
100
AcDbEntity
  8
0
100
AcDbCircle
 10
1539.445339510745
 20
978.6898229079293
 30
0.0
 40
3.0
100
AcDbArc
 50
349.9999999999998
 51
90.0
  0
ARC
  5
3C5
102
{ACAD_REACTORS
330
5ED
330
700
102
}
330
1F
100
AcDbEntity
  8
0
100
AcDbCircle
 10
1548.383491455202
 20
986.1898229079292
 30
0.0
 40
9.0
100
AcDbArc
 50
349.9999999999998
 51
90.0
  0
LINE
  5
3C6
102
{ACAD_REACTORS
330
5ED
330
700
102
}
330
1F
100
AcDbEntity
  8
0
100
AcDbLine
 10
1500.479403753424
 20
913.1898229079297
 30
0.0
 11
1537.09856468986
 21
913.1898229079297
 31
0.0
  0
LINE
  5
3C7
102
{ACAD_REACTORS
330
60F
330
5ED
330
700
102
}
330
1F
100
AcDbEntity
  8
0
100
AcDbLine
 10
1516.568077253446
 20
926.6898229079297
 30
0.0
 11
1530.80531745603
 21
926.6898229079297
 31
0.0
  0
ARC
  5
3C8
102
{ACAD_REACTORS
330
5ED
330
700
102
}
330
1F
100
AcDbEntity
  8
0
100
AcDbCircle
 10
1537.09856468986
 20
922.1898229079297
 30
0.0
 40
9.0
100
AcDbArc
 50
270.0
 51
349.9999999999998
  0
ARC
  5
3C9
102
{ACAD_REACTORS
330
5ED
330
700
102
}
330
1F
100
AcDbEntity
  8
0
100
AcDbCircle
 10
1537.09856468986
 20
922.1898229079297
 30
0.0
 40
12.0
100
AcDbArc
 50
311.4096221092731
 51
349.9999999999998
  0
LINE
  5
3CA
102
{ACAD_REACTORS
330
5ED
330
700
102
}
330
1F
100
AcDbEntity
  8
0
100
AcDbLine
 10
1541.749962042452
 20
954.1898229079295
 30
0.0
 11
1544.327970898907
 21
954.1898229079295
 31
0.0
  0
ARC
  5
3CB
102
{ACAD_REACTORS
330
5ED
330
700
102
}
330
1F
100
AcDbEntity
  8
0
100
AcDbCircle
 10
1541.749962042452
 20
945.6898229079294
 30
0.0
 40
8.5
100
AcDbArc
 50
349.9999999999998
 51
90.0
  0
LINE
  5
3CC
102
{ACAD_REACTORS
330
5ED
330
700
102
}
330
1F
100
AcDbEntity
  8
0
100
AcDbLine
 10
1570.278966519293
 20
995.1898229079288
 30
0.0
 11
2716.131626703065
 21
995.1898229079292
 31
0.0
  0
LINE
  5
3CD
102
{ACAD_REACTORS
330
5ED
330
700
102
}
330
1F
100
AcDbEntity
  8
0
100
AcDbLine
 10
1567.898552279729
 20
981.6898229079292
 30
0.0
 11
2716.131626703065
 21
981.6898229079292
 31
0.0
  0
LINE
  5
3CE
102
{ACAD_REACTORS
330
5ED
330
700
102
}
330
1F
100
AcDbEntity
  8
0
100
AcDbLine
 10
1680.559475072995
 20
926.6898229079295
 30
0.0
 11
2716.131626703065
 21
926.6898229079293
 31
0.0
  0
LINE
  5
3CF
102
{ACAD_REACTORS
330
5ED
330
700
102
}
330
1F
100
AcDbEntity
  8
0
100
AcDbLine
 10
1678.17906083343
 20
913.1898229079297
 30
0.0
 11
2716.131626703065
 21
913.1898229079297
 31
0.0
  0
LINE
  5
3D0
102
{ACAD_REACTORS
330
5ED
330
700
102
}
330
1F
100
AcDbEntity
  8
0
100
AcDbLine
 10
1567.898552279728
 20
981.6898229079292
 30
0.0
 11
1570.278966519293
 21
995.1898229079288
 31
0.0
  0
LINE
  5
3D1
102
{ACAD_REACTORS
330
5ED
330
700
102
}
330
1F
100
AcDbEntity
  8
0
100
AcDbLine
 10
1266.131626703065
 20
947.4398229079294
 30
0.0
 11
1495.348910111947
 21
947.4398229079294
 31
0.0
  0
LINE
  5
3D2
102
{ACAD_REACTORS
330
60F
330
5ED
330
700
102
}
330
1F
100
AcDbEntity
  8
0
100
AcDbLine
 10
1520.226862103148
 20
947.4398229079294
 30
0.0
 11
1533.40614042148
 21
947.4398229079294
 31
0.0
  0
LINE
  5
3D3
102
{ACAD_REACTORS
330
5ED
330
700
102
}
330
1F
100
AcDbEntity
  8
0
100
AcDbLine
 10
1266.131626703065
 20
960.9398229079298
 30
0.0
 11
1497.729324351511
 21
960.9398229079298
 31
0.0
  0
LINE
  5
3D4
102
{ACAD_REACTORS
330
60F
330
5ED
330
700
102
}
330
1F
100
AcDbEntity
  8
0
100
AcDbLine
 10
1522.607276342711
 20
960.9398229079294
 30
0.0
 11
1536.844516545295
 21
960.9398229079294
 31
0.0
  0
LINE
  5
3D5
102
{ACAD_REACTORS
330
5ED
330
700
102
}
330
1F
100
AcDbEntity
  8
0
100
AcDbLine
 10
1495.348910111947
 20
947.4398229079294
 30
0.0
 11
1497.729324351512
 21
960.9398229079298
 31
0.0
  0
LINE
  5
3D6
102
{ACAD_REACTORS
330
5ED
330
700
102
}
330
1F
100
AcDbEntity
  8
0
100
AcDbLine
 10
1686.59867416226
 20
960.9398229079294
 30
0.0
 11
2716.131626703065
 21
960.93982290793
 31
0.0
  0
LINE
  5
3D7
102
{ACAD_REACTORS
330
5ED
330
700
102
}
330
1F
100
AcDbEntity
  8
0
100
AcDbLine
 10
1684.218259922695
 20
947.4398229079294
 30
0.0
 11
2716.131626703065
 21
947.4398229079294
 31
0.0
  0
LINE
  5
3D8
102
{ACAD_REACTORS
330
5ED
330
700
102
}
330
1F
100
AcDbEntity
  8
0
100
AcDbLine
 10
1678.17906083343
 20
913.1898229079297
 30
0.0
 11
1680.559475072995
 21
926.6898229079295
 31
0.0
  0
LINE
  5
3D9
102
{ACAD_REACTORS
330
5ED
330
700
102
}
330
1F
100
AcDbEntity
  8
0
100
AcDbLine
 10
1684.218259922695
 20
947.4398229079294
 30
0.0
 11
1686.59867416226
 21
960.9398229079298
 31
0.0
  0
LINE
  5
3DA
102
{ACAD_REACTORS
330
5ED
330
700
102
}
330
1F
100
AcDbEntity
  8
0
100
AcDbLine
 10
1564.239767430027
 20
960.9398229079298
 30
0.0
 11
1576.932600078599
 21
960.9398229079298
 31
0.0
  0
LINE
  5
3DB
102
{ACAD_REACTORS
330
5ED
330
700
102
}
330
1F
100
AcDbEntity
  8
0
100
AcDbLine
 10
1564.768748372153
 20
963.9398229079295
 30
0.0
 11
1577.461581020725
 21
963.9398229079297
 31
0.0
  0
LINE
  5
3DC
102
{ACAD_REACTORS
330
5ED
330
700
102
}
330
1F
100
AcDbEntity
  8
0
100
AcDbLine
 10
1566.708345159946
 20
974.9398229079295
 30
0.0
 11
1579.401177808518
 21
974.93982290793
 31
0.0
  0
LINE
  5
3DD
330
1F
100
AcDbEntity
  8
0
100
AcDbLine
 10
1568.512986749769
 20
913.1898229079299
 30
0.0
 11
1555.820154101197
 21
913.1898229079297
 31
0.0
  0
LINE
  5
3DE
102
{ACAD_REACTORS
330
5ED
330
700
102
}
330
1F
100
AcDbEntity
  8
0
100
AcDbLine
 10
1558.024241360054
 20
925.6898229079304
 30
0.0
 11
1564.239767430027
 21
960.9398229079298
 31
0.0
  0
LINE
  5
3DF
102
{ACAD_REACTORS
330
5ED
330
700
102
}
330
1F
100
AcDbEntity
  8
0
100
AcDbLine
 10
1570.717074008626
 20
925.6898229079302
 30
0.0
 11
1576.932600078599
 21
960.9398229079298
 31
0.0
  0
LINE
  5
3E0
102
{ACAD_REACTORS
330
5ED
330
700
102
}
330
1F
100
AcDbEntity
  8
0
100
AcDbLine
 10
1581.886766739368
 20
925.6898229079302
 30
0.0
 11
1586.790919712828
 21
953.5026565069323
 31
0.0
  0
ARC
  5
3E1
102
{ACAD_REACTORS
330
5ED
330
700
102
}
330
1F
100
AcDbEntity
  8
0
100
AcDbCircle
 10
1595.654189489938
 20
951.9398229079298
 30
0.0
 40
9.0
100
AcDbArc
 50
90.0
 51
169.9999999999981
  0
LINE
  5
3E2
102
{ACAD_REACTORS
330
60F
330
5ED
330
700
102
}
330
1F
100
AcDbEntity
  8
0
100
AcDbLine
 10
1595.200436906687
 20
929.2107674409308
 30
0.0
 11
1598.153913833554
 21
945.9607674409305
 31
0.0
  0
ARC
  5
3E3
102
{ACAD_REACTORS
330
60F
330
5ED
330
700
102
}
330
1F
100
AcDbEntity
  8
0
100
AcDbCircle
 10
1598.154860165723
 20
928.68982290793
 30
0.0
 40
3.0
100
AcDbArc
 50
169.9999999999981
 51
270.0
  0
ARC
  5
3E4
102
{ACAD_REACTORS
330
60F
330
5ED
330
700
102
}
330
1F
100
AcDbEntity
  8
0
100
AcDbCircle
 10
1601.10833709259
 20
945.4398229079297
 30
0.0
 40
3.0
100
AcDbArc
 50
90.0
 51
169.9999999999981
  0
LINE
  5
3E5
102
{ACAD_REACTORS
330
60F
330
5ED
330
700
102
}
330
1F
100
AcDbEntity
  8
0
100
AcDbLine
 10
1607.709556402017
 20
928.1688783749292
 30
0.0
 11
1610.663033328884
 21
944.9188783749288
 31
0.0
  0
ARC
  5
3E6
102
{ACAD_REACTORS
330
60F
330
5ED
330
700
102
}
330
1F
100
AcDbEntity
  8
0
100
AcDbCircle
 10
1607.708610069848
 20
945.4398229079297
 30
0.0
 40
3.0
100
AcDbArc
 50
349.9999999999982
 51
90.0
  0
LINE
  5
3E7
102
{ACAD_REACTORS
330
5ED
330
700
102
}
330
1F
100
AcDbEntity
  8
0
100
AcDbLine
 10
1619.965264685085
 20
925.6898229079299
 30
0.0
 11
1624.31827819882
 21
950.3769893089272
 31
0.0
  0
LINE
  5
3E8
102
{ACAD_REACTORS
330
5ED
330
700
102
}
330
1F
100
AcDbEntity
  8
0
100
AcDbLine
 10
1631.134957415828
 20
925.6898229079299
 30
0.0
 11
1636.039110389287
 21
953.5026565069323
 31
0.0
  0
ARC
  5
3E9
102
{ACAD_REACTORS
330
5ED
330
700
102
}
330
1F
100
AcDbEntity
  8
0
100
AcDbCircle
 10
1644.902380166397
 20
951.9398229079298
 30
0.0
 40
9.0
100
AcDbArc
 50
90.0
 51
169.9999999999998
  0
LINE
  5
3EA
102
{ACAD_REACTORS
330
60F
330
5ED
330
700
102
}
330
1F
100
AcDbEntity
  8
0
100
AcDbLine
 10
1644.448627583146
 20
929.2107674409308
 30
0.0
 11
1647.402104510012
 21
945.9607674409305
 31
0.0
  0
ARC
  5
3EB
102
{ACAD_REACTORS
330
60F
330
5ED
330
700
102
}
330
1F
100
AcDbEntity
  8
0
100
AcDbCircle
 10
1647.403050842182
 20
928.68982290793
 30
0.0
 40
3.0
100
AcDbArc
 50
169.9999999999998
 51
270.0
  0
ARC
  5
3EC
102
{ACAD_REACTORS
330
60F
330
5ED
330
700
102
}
330
1F
100
AcDbEntity
  8
0
100
AcDbCircle
 10
1650.356527769049
 20
945.4398229079297
 30
0.0
 40
3.0
100
AcDbArc
 50
90.0
 51
169.9999999999998
  0
LINE
  5
3ED
102
{ACAD_REACTORS
330
60F
330
5ED
330
700
102
}
330
1F
100
AcDbEntity
  8
0
100
AcDbLine
 10
1656.957747078476
 20
928.1688783749292
 30
0.0
 11
1659.911224005343
 21
944.9188783749288
 31
0.0
  0
ARC
  5
3EE
102
{ACAD_REACTORS
330
60F
330
5ED
330
700
102
}
330
1F
100
AcDbEntity
  8
0
100
AcDbCircle
 10
1656.956800746306
 20
945.4398229079297
 30
0.0
 40
3.0
100
AcDbArc
 50
349.9999999999998
 51
90.0
  0
LINE
  5
3EF
102
{ACAD_REACTORS
330
5ED
330
700
102
}
330
1F
100
AcDbEntity
  8
0
100
AcDbLine
 10
1668.320741199202
 20
920.6269893089274
 30
0.0
 11
1677.897559161436
 21
974.93982290793
 31
0.0
  0
ARC
  5
3F0
102
{ACAD_REACTORS
330
5ED
330
700
102
}
330
1F
100
AcDbEntity
  8
0
100
AcDbCircle
 10
1659.457471422092
 20
922.1898229079299
 30
0.0
 40
9.0
100
AcDbArc
 50
270.0
 51
349.9999999999998
  0
ARC
  5
3F1
102
{ACAD_REACTORS
330
5ED
330
700
102
}
330
1F
100
AcDbEntity
  8
0
100
AcDbCircle
 10
1615.45500842171
 20
951.9398229079298
 30
0.0
 40
9.0
100
AcDbArc
 50
349.9999999999982
 51
90.0
  0
LINE
  5
3F2
102
{ACAD_REACTORS
330
5ED
330
700
102
}
330
1F
100
AcDbEntity
  8
0
100
AcDbLine
 10
1564.768748372153
 20
963.9398229079295
 30
0.0
 11
1566.708345159946
 21
974.9398229079295
 31
0.0
  0
LINE
  5
3F3
102
{ACAD_REACTORS
330
5ED
330
700
102
}
330
1F
100
AcDbEntity
  8
0
100
AcDbLine
 10
1577.461581020725
 20
963.9398229079297
 30
0.0
 11
1579.401177808518
 21
974.93982290793
 31
0.0
  0
LINE
  5
3F4
102
{ACAD_REACTORS
330
5ED
330
700
102
}
330
1F
100
AcDbEntity
  8
0
100
AcDbLine
 10
1545.035818623054
 20
913.1898229079299
 30
0.0
 11
1659.457471422092
 21
913.1898229079299
 31
0.0
  0
LINE
  5
3F5
102
{ACAD_REACTORS
330
60F
330
5ED
330
700
102
}
330
1F
100
AcDbEntity
  8
0
100
AcDbLine
 10
1598.154860165723
 20
925.6898229079299
 30
0.0
 11
1604.755133142981
 21
925.6898229079299
 31
0.0
  0
ARC
  5
3F6
102
{ACAD_REACTORS
330
60F
330
5ED
330
700
102
}
330
1F
100
AcDbEntity
  8
0
100
AcDbCircle
 10
1604.755133142981
 20
928.68982290793
 30
0.0
 40
3.0
100
AcDbArc
 50
270.0
 51
349.9999999999982
  0
LINE
  5
3F7
102
{ACAD_REACTORS
330
5ED
330
700
102
}
330
1F
100
AcDbEntity
  8
0
100
AcDbLine
 10
1595.654189489938
 20
960.9398229079298
 30
0.0
 11
1615.45500842171
 21
960.9398229079298
 31
0.0
  0
LINE
  5
3F8
102
{ACAD_REACTORS
330
60F
330
5ED
330
700
102
}
330
1F
100
AcDbEntity
  8
0
100
AcDbLine
 10
1601.10833709259
 20
948.4398229079298
 30
0.0
 11
1607.708610069848
 21
948.4398229079298
 31
0.0
  0
LINE
  5
3F9
102
{ACAD_REACTORS
330
5ED
330
700
102
}
330
1F
100
AcDbEntity
  8
0
100
AcDbLine
 10
1581.886766739368
 20
925.6898229079302
 30
0.0
 11
1570.717074008626
 21
925.6898229079302
 31
0.0
  0
LINE
  5
3FA
102
{ACAD_REACTORS
330
5ED
330
700
102
}
330
1F
100
AcDbEntity
  8
0
100
AcDbLine
 10
1558.024241360054
 20
925.6898229079302
 30
0.0
 11
1549.900828464968
 21
925.6898229079304
 31
0.0
  0
LINE
  5
3FB
102
{ACAD_REACTORS
330
60F
330
5ED
330
700
102
}
330
1F
100
AcDbEntity
  8
0
100
AcDbLine
 10
1647.403050842182
 20
925.6898229079299
 30
0.0
 11
1654.00332381944
 21
925.6898229079299
 31
0.0
  0
ARC
  5
3FC
102
{ACAD_REACTORS
330
60F
330
5ED
330
700
102
}
330
1F
100
AcDbEntity
  8
0
100
AcDbCircle
 10
1654.00332381944
 20
928.68982290793
 30
0.0
 40
3.0
100
AcDbArc
 50
270.0
 51
349.9999999999998
  0
LINE
  5
3FD
102
{ACAD_REACTORS
330
5ED
330
700
102
}
330
1F
100
AcDbEntity
  8
0
100
AcDbLine
 10
1644.902380166397
 20
960.9398229079298
 30
0.0
 11
1662.828005359566
 21
960.9398229079298
 31
0.0
  0
LINE
  5
3FE
102
{ACAD_REACTORS
330
60F
330
5ED
330
700
102
}
330
1F
100
AcDbEntity
  8
0
100
AcDbLine
 10
1650.356527769049
 20
948.4398229079298
 30
0.0
 11
1656.956800746306
 21
948.4398229079298
 31
0.0
  0
LINE
  5
3FF
102
{ACAD_REACTORS
330
5ED
330
700
102
}
330
1F
100
AcDbEntity
  8
0
100
AcDbLine
 10
1619.965264685085
 20
925.6898229079299
 30
0.0
 11
1631.134957415828
 21
925.6898229079299
 31
0.0
  0
LINE
  5
400
102
{ACAD_REACTORS
330
5ED
330
700
102
}
330
1F
100
AcDbEntity
  8
0
100
AcDbLine
 10
1665.296583089484
 20
974.93982290793
 30
0.0
 11
1677.897559161436
 21
974.93982290793
 31
0.0
  0
LINE
  5
401
102
{ACAD_REACTORS
330
5ED
330
700
102
}
330
1F
100
AcDbEntity
  8
0
100
AcDbLine
 10
1662.828005359566
 20
960.9398229079298
 30
0.0
 11
1665.296583089484
 21
974.93982290793
 31
0.0
  0
LINE
  5
404
102
{ACAD_REACTORS
330
5ED
330
700
102
}
330
1F
100
AcDbEntity
  8
0
100
AcDbLine
 10
1266.131626703066
 20
1002.189822907928
 30
0.0
 11
1266.131626703065
 21
906.1898229079297
 31
0.0
  0
LINE
  5
405
102
{ACAD_REACTORS
330
5ED
330
700
102
}
330
1F
100
AcDbEntity
  8
0
100
AcDbLine
 10
2716.131626703065
 20
1002.189822907929
 30
0.0
 11
2716.131626703065
 21
906.1898229079297
 31
0.0
  0
DIMENSION
  5
408
330
1F
100
AcDbEntity
  8
0
100
AcDbDimension
280
     0
  2
*D2
 10
2716.131626703065
 20
880.3357066334124
 30
0.0
 11
1991.131626703065
 21
887.9414365106294
 31
0.0
 70
    32
  1
<> mm
 71
     5
 42
1450.0
 73
     0
 74
     0
 75
     0
  3
ISO-25
100
AcDbAlignedDimension
 13
1266.131626703065
 23
906.1898229079297
 33
0.0
 14
2716.131626703065
 24
906.1898229079297
 34
0.0
100
AcDbRotatedDimension
  0
MTEXT
  5
422
330
1F
100
AcDbEntity
  8
0
100
AcDbMText
 10
1690.367361713895
 20
923.7293116437498
 30
0.0
 40
7.5
 41
196.6739758259537
 46
0.0
 71
     1
 72
     5
  1
{\W0.75;\C39;\c2701914;OLDENZAAL HOLLAND}
 73
     1
 44
1.0
1001
ACAD
1000
ACAD_MTEXT_COLUMN_INFO_BEGIN
1070
    75
1070
     2
1070
    79
1070
     0
1070
    76
1070
     1
1070
    78
1070
     0
1070
    48
1040
196.6739758259537
1070
    49
1040
12.5
1070
    50
1070
     1
1040
0.0
1000
ACAD_MTEXT_COLUMN_INFO_END
  0
HATCH
  5
48B
330
1F
100
AcDbEntity
  8
0
100
AcDbHatch
 10
0.0
 20
0.0
 30
0.0
210
0.0
220
0.0
230
1.0
  2
SOLID
 70
     1
 71
     1
 91
       13
 92
        7
 72
     0
 73
     1
 93
        4
 10
1503.768523440776
 20
1177.759845128863
 10
1266.131626703065
 20
1177.759845128863
 10
1266.131626703065
 20
1164.259845128864
 10
1501.388109201212
 20
1164.259845128863
 97
        4
330
240
330
37E
330
242
330
24D
 92
        7
 72
     0
 73
     1
 93
        4
 10
1497.729324351512
 20
1143.509845128864
 10
1266.131626703065
 20
1143.509845128864
 10
1266.131626703065
 20
1130.009845128864
 10
1495.348910111947
 20
1130.009845128864
 97
        4
330
273
330
383
330
274
330
275
 92
        7
 72
     0
 73
     1
 93
        4
 10
1491.690125262246
 20
1109.259845128864
 10
1266.131626703065
 20
1109.259845128863
 10
1266.131626703065
 20
1095.759845128864
 10
1489.309711022682
 20
1095.759845128864
 97
        4
330
243
330
382
330
241
330
24E
 92
        7
 72
     1
 73
     1
 93
       10
 10
1545.96183446697
 20
1103.197011529862
 42
0.0
 10
1550.120827943055
 20
1126.783835618695
 42
0.4663076581549993
 10
1541.749962042452
 20
1136.759845128864
 42
0.0
 10
1544.327970898907
 20
1136.759845128864
 42
0.3639702342662028
 10
1553.191240676017
 20
1144.197011529861
 42
0.0
 10
1557.246761232311
 20
1167.197011529861
 42
0.4663076581549982
 10
1548.383491455202
 20
1177.759845128863
 42
0.0
 10
1514.93821617152
 20
1177.759845128863
 42
0.0
 10
1500.479403753424
 20
1095.759845128864
 42
0.0
 10
1537.09856468986
 20
1095.759845128864
 42
0.3639702342662016
 97
       10
330
250
330
267
330
263
330
264
330
25E
330
253
330
251
330
24F
330
252
330
254
 92
       22
 72
     1
 73
     1
 93
        6
 10
1516.568077253446
 20
1109.259845128864
 42
0.0
 10
1520.226862103148
 20
1130.009845128864
 42
0.0
 10
1533.40614042148
 20
1130.009845128864
 42
-0.466307658155001
 10
1536.360563680517
 20
1126.488900595863
 42
0.0
 10
1533.759740715067
 20
1111.738900595863
 42
-0.363970234266201
 10
1530.80531745603
 20
1109.259845128864
 42
0.0
 97
        6
330
256
330
276
330
279
330
257
330
259
330
258
 92
       22
 72
     1
 73
     1
 93
        6
 10
1522.607276342712
 20
1143.509845128863
 42
0.0
 10
1526.266061192413
 20
1164.259845128863
 42
0.0
 10
1539.445339510745
 20
1164.259845128863
 42
-0.4663076581549954
 10
1542.399762769782
 20
1160.738900595863
 42
0.0
 10
1539.798939804332
 20
1145.988900595863
 42
-0.3639702342662051
 10
1536.844516545295
 20
1143.509845128864
 42
0.0
 97
        6
330
260
330
255
330
25A
330
25F
330
278
330
277
 92
        7
 72
     1
 73
     1
 93
       21
 10
1668.320741199202
 20
1103.197011529862
 42
0.0
 10
1677.897559161436
 20
1157.509845128864
 42
0.0
 10
1665.296583089484
 20
1157.509845128864
 42
0.0
 10
1662.828005359566
 20
1143.509845128864
 42
0.0
 10
1644.902380166397
 20
1143.509845128864
 42
0.3639702342662021
 10
1636.039110389287
 20
1136.072678727866
 42
0.0
 10
1631.134957415828
 20
1108.259845128864
 42
0.0
 10
1619.965264685085
 20
1108.259845128864
 42
0.0
 10
1624.31827819882
 20
1132.947011529862
 42
0.4663076581550014
 10
1615.45500842171
 20
1143.509845128864
 42
0.0
 10
1595.654189489938
 20
1143.509845128864
 42
0.363970234266197
 10
1586.790919712828
 20
1136.072678727866
 42
0.0
 10
1581.886766739368
 20
1108.259845128864
 42
0.0
 10
1570.717074008626
 20
1108.259845128864
 42
0.0
 10
1576.932600078599
 20
1143.509845128864
 42
0.0
 10
1564.239767430027
 20
1143.509845128864
 42
0.0
 10
1558.024241360054
 20
1108.259845128864
 42
0.0
 10
1549.900828464968
 20
1108.259845128864
 42
0.0
 10
1548.916257726006
 20
1102.676066996861
 42
-0.1699919039033213
 10
1545.035818623054
 20
1095.759845128864
 42
0.0
 10
1659.457471422092
 20
1095.759845128864
 42
0.3639702342662054
 97
       21
330
2C4
330
2CD
330
2CE
330
2C5
330
2CC
330
2C1
330
2CB
330
2AF
330
2B5
330
2A6
330
2B4
330
2AC
330
2BC
330
2AA
330
281
330
283
330
2BD
330
2BE
330
2BF
330
29D
330
2CF
 92
       22
 72
     1
 73
     1
 93
        8
 10
1595.200436906687
 20
1111.780789661865
 42
0.0
 10
1598.153913833554
 20
1128.530789661865
 42
-0.3639702342661959
 10
1601.10833709259
 20
1131.009845128864
 42
0.0
 10
1607.708610069848
 20
1131.009845128864
 42
-0.4663076581550037
 10
1610.663033328884
 20
1127.488900595863
 42
0.0
 10
1607.709556402017
 20
1110.738900595863
 42
-0.3639702342661959
 10
1604.755133142981
 20
1108.259845128864
 42
0.0
 10
1598.154860165723
 20
1108.259845128864
 42
-0.4663076581550044
 97
        8
330
2AD
330
2B8
330
2B6
330
2B9
330
2AE
330
2BA
330
2B7
330
2BB
 92
       22
 72
     1
 73
     1
 93
        8
 10
1644.448627583146
 20
1111.780789661865
 42
0.0
 10
1647.402104510012
 20
1128.530789661865
 42
-0.3639702342661998
 10
1650.356527769049
 20
1131.009845128864
 42
0.0
 10
1656.956800746306
 20
1131.009845128864
 42
-0.4663076581550012
 10
1659.911224005343
 20
1127.488900595863
 42
0.0
 10
1656.957747078476
 20
1110.738900595863
 42
-0.3639702342662002
 10
1654.00332381944
 20
1108.259845128864
 42
0.0
 10
1647.403050842182
 20
1108.259845128864
 42
-0.4663076581549908
 97
        8
330
2C2
330
2C7
330
2C6
330
2C8
330
2C3
330
2C9
330
2C0
330
2CA
 92
       23
 72
     0
 73
     1
 93
        4
 10
1579.401177808518
 20
1157.509845128864
 10
1566.708345159946
 20
1157.509845128864
 10
1564.768748372153
 20
1146.509845128864
 10
1577.461581020725
 20
1146.509845128864
 97
        4
330
286
330
287
330
285
330
2AB
 92
        7
 72
     0
 73
     1
 93
        4
 10
1866.131626703065
 20
1177.759845128863
 10
1570.278966519293
 20
1177.759845128863
 10
1567.898552279728
 20
1164.259845128863
 10
1866.131626703065
 20
1164.259845128863
 97
        4
330
268
330
26F
330
269
330
37F
 92
        7
 72
     0
 73
     1
 93
        4
 10
1866.131626703065
 20
1143.509845128864
 10
1686.59867416226
 20
1143.509845128864
 10
1684.218259922695
 20
1130.009845128864
 10
1866.131626703065
 20
1130.009845128864
 97
        4
330
27A
330
27E
330
27B
330
381
 92
        7
 72
     0
 73
     1
 93
        4
 10
1866.131626703065
 20
1109.259845128863
 10
1680.559475072995
 20
1109.259845128864
 10
1678.17906083343
 20
1095.759845128864
 10
1866.131626703065
 20
1095.759845128864
 97
        4
330
26C
330
27D
330
26D
330
380
 75
     1
 76
     1
 47
0.565603735444895
 98
       13
 10
1487.542399294837
 20
1173.776635276638
 10
1471.125123561505
 20
1138.14359985368
 10
1471.125123561505
 20
1102.510564430722
 10
1510.753030704611
 20
1101.379355735073
 10
1510.753030704611
 20
1101.379355735073
 10
1510.753030704611
 20
1101.379355735073
 10
1585.479937328645
 20
1102.510564430722
 10
1585.479937328645
 20
1102.510564430722
 10
1585.479937328645
 20
1102.510564430722
 10
1573.591569257488
 20
1147.193258421734
 10
1595.669973751717
 20
1168.120597296963
 10
1727.00817380155
 20
1137.012391158032
 10
1729.272621815815
 20
1103.641770377087
450
        0
451
        0
460
0.0
461
0.0
452
        0
462
1.0
453
        2
463
0.0
 63
     5
421
      255
463
1.0
 63
     2
421
 16776960
470
LINEAR
1001
GradientColor1ACI
1070
     5
1001
GradientColor2ACI
1070
     2
1001
ACAD
1010
0.0
1020
0.0
1030
0.0
  0
LINE
  5
4F3
102
{ACAD_REACTORS
330
5ED
102
}
330
1F
100
AcDbEntity
  8
0
100
AcDbLine
 10
1266.131626703065
 20
906.1898229079297
 30
0.0
 11
2716.131626703065
 21
906.1898229079297
 31
0.0
  0
LINE
  5
50F
102
{ACAD_REACTORS
330
5ED
102
}
330
1F
100
AcDbEntity
  8
0
100
AcDbLine
 10
1266.131626703066
 20
1002.189822907928
 30
0.0
 11
2716.131626703065
 21
1002.189822907929
 31
0.0
  0
HATCH
  5
5ED
330
1F
100
AcDbEntity
  8
0
 62
    39
420
  5913129
430
RAL CLASSIC$RAL 8011
100
AcDbHatch
 10
0.0
 20
0.0
 30
0.0
210
0.0
220
0.0
230
1.0
  2
SOLID
 70
     1
 71
     1
 91
        8
 92
        7
 72
     0
 73
     1
 93
       28
 10
2716.131626703065
 20
960.93982290793
 10
2716.131626703065
 20
981.6898229079292
 10
1567.898552279728
 20
981.6898229079292
 10
1570.278966519293
 20
995.1898229079288
 10
2716.131626703065
 20
995.1898229079292
 10
2716.131626703065
 20
1002.189822907929
 10
1266.131626703066
 20
1002.189822907928
 10
1266.131626703066
 20
995.1898229079288
 10
1503.768523440776
 20
995.1898229079292
 10
1501.388109201212
 20
981.689822907929
 10
1266.131626703066
 20
981.6898229079296
 10
1266.131626703065
 20
960.9398229079298
 10
1497.729324351512
 20
960.9398229079298
 10
1495.348910111947
 20
947.4398229079294
 10
1266.131626703065
 20
947.4398229079294
 10
1266.131626703065
 20
926.6898229079293
 10
1491.690125262246
 20
926.6898229079295
 10
1489.309711022682
 20
913.1898229079297
 10
1266.131626703065
 20
913.1898229079297
 10
1266.131626703065
 20
906.1898229079297
 10
2716.131626703065
 20
906.1898229079297
 10
2716.131626703065
 20
913.1898229079297
 10
1678.17906083343
 20
913.1898229079297
 10
1680.559475072995
 20
926.6898229079295
 10
2716.131626703065
 20
926.6898229079293
 10
2716.131626703065
 20
947.4398229079294
 10
1684.218259922695
 20
947.4398229079294
 10
1686.59867416226
 20
960.9398229079294
 97
       22
330
3CD
330
3D0
330
3CC
330
405
330
50F
330
404
330
3B2
330
3B4
330
3B3
330
3D3
330
3D5
330
3D1
330
3B1
330
3C1
330
3B0
330
4F3
330
3CF
330
3D8
330
3CE
330
3D7
330
3D9
330
3D6
 92
       22
 72
     1
 73
     1
 93
       21
 10
1677.897559161436
 20
974.93982290793
 42
0.0
 10
1668.320741199202
 20
920.6269893089276
 42
-0.3639702342661997
 10
1659.457471422092
 20
913.1898229079299
 42
0.0
 10
1545.035818623054
 20
913.1898229079299
 42
0.1699919039033248
 10
1548.916257726006
 20
920.1060447759269
 42
0.0
 10
1549.900828464968
 20
925.6898229079304
 42
0.0
 10
1558.024241360054
 20
925.6898229079302
 42
0.0
 10
1564.239767430027
 20
960.9398229079298
 42
0.0
 10
1576.932600078599
 20
960.9398229079298
 42
0.0
 10
1570.717074008626
 20
925.6898229079302
 42
0.0
 10
1581.886766739368
 20
925.6898229079302
 42
0.0
 10
1586.790919712828
 20
953.5026565069323
 42
-0.3639702342661957
 10
1595.654189489938
 20
960.9398229079298
 42
0.0
 10
1615.45500842171
 20
960.9398229079298
 42
-0.4663076581550007
 10
1624.31827819882
 20
950.3769893089273
 42
0.0
 10
1619.965264685085
 20
925.6898229079299
 42
0.0
 10
1631.134957415828
 20
925.6898229079299
 42
0.0
 10
1636.039110389287
 20
953.5026565069321
 42
-0.3639702342662016
 10
1644.902380166397
 20
960.9398229079298
 42
0.0
 10
1662.828005359566
 20
960.9398229079298
 42
0.0
 10
1665.296583089484
 20
974.93982290793
 42
0.0
 97
       21
330
3EF
330
3F0
330
3F4
330
3C9
330
3B9
330
3FA
330
3DE
330
3DA
330
3DF
330
3F9
330
3E0
330
3E1
330
3F7
330
3F1
330
3E7
330
3FF
330
3E8
330
3E9
330
3FD
330
401
330
400
 92
        6
 72
     1
 73
     1
 93
        8
 10
1659.911224005343
 20
944.9188783749288
 42
0.0
 10
1656.957747078476
 20
928.1688783749292
 42
-0.3639702342662006
 10
1654.00332381944
 20
925.6898229079299
 42
0.0
 10
1647.403050842182
 20
925.6898229079299
 42
-0.4663076581549999
 10
1644.448627583146
 20
929.2107674409308
 42
0.0
 10
1647.402104510012
 20
945.9607674409305
 42
-0.3639702342662008
 10
1650.356527769049
 20
948.4398229079298
 42
0.0
 10
1656.956800746306
 20
948.4398229079298
 42
-0.4663076581549964
 97
        8
330
3ED
330
3FC
330
3FB
330
3EB
330
3EA
330
3EC
330
3FE
330
3EE
 92
        6
 72
     1
 73
     1
 93
        8
 10
1610.663033328884
 20
944.9188783749288
 42
0.0
 10
1607.709556402017
 20
928.1688783749292
 42
-0.3639702342661948
 10
1604.755133142981
 20
925.6898229079299
 42
0.0
 10
1598.154860165723
 20
925.6898229079299
 42
-0.4663076581550119
 10
1595.200436906687
 20
929.2107674409306
 42
0.0
 10
1598.153913833554
 20
945.9607674409307
 42
-0.3639702342661937
 10
1601.10833709259
 20
948.4398229079298
 42
0.0
 10
1607.708610069848
 20
948.4398229079298
 42
-0.4663076581550138
 97
        8
330
3E5
330
3F6
330
3F5
330
3E3
330
3E2
330
3E4
330
3F8
330
3E6
 92
       22
 72
     0
 73
     1
 93
        4
 10
1579.401177808518
 20
974.93982290793
 10
1577.461581020725
 20
963.9398229079297
 10
1564.768748372153
 20
963.9398229079295
 10
1566.708345159946
 20
974.9398229079295
 97
        4
330
3F3
330
3DB
330
3F2
330
3DC
 92
       22
 72
     1
 73
     1
 93
       10
 10
1557.246761232311
 20
984.6269893089267
 42
0.0
 10
1553.191240676017
 20
961.6269893089272
 42
-0.3639702342662035
 10
1544.327970898907
 20
954.1898229079295
 42
0.0
 10
1541.749962042452
 20
954.1898229079295
 42
-0.4663076581549989
 10
1550.120827943055
 20
944.2138133977605
 42
0.0
 10
1545.96183446697
 20
920.6269893089274
 42
-0.3639702342662025
 10
1537.09856468986
 20
913.1898229079297
 42
0.0
 10
1500.479403753424
 20
913.1898229079297
 42
0.0
 10
1514.93821617152
 20
995.1898229079292
 42
0.0
 10
1548.383491455202
 20
995.1898229079292
 42
-0.4663076581550055
 97
       10
330
3BA
330
3BB
330
3CA
330
3CB
330
3B8
330
3C8
330
3C6
330
3B5
330
3C2
330
3C5
 92
        6
 72
     1
 73
     1
 93
        6
 10
1542.399762769782
 20
978.1688783749284
 42
0.0
 10
1539.798939804332
 20
963.4188783749287
 42
-0.363970234266205
 10
1536.844516545295
 20
960.9398229079294
 42
0.0
 10
1522.607276342712
 20
960.9398229079294
 42
0.0
 10
1526.266061192413
 20
981.6898229079292
 42
0.0
 10
1539.445339510745
 20
981.6898229079292
 42
-0.4663076581549938
 97
        6
330
3BE
330
3BF
330
3D4
330
3B7
330
3C3
330
3C4
 92
        6
 72
     1
 73
     1
 93
        6
 10
1536.360563680517
 20
943.9188783749287
 42
0.0
 10
1533.759740715067
 20
929.168878374929
 42
-0.3639702342662017
 10
1530.80531745603
 20
926.6898229079297
 42
0.0
 10
1516.568077253446
 20
926.6898229079297
 42
0.0
 10
1520.226862103148
 20
947.4398229079294
 42
0.0
 10
1533.40614042148
 20
947.4398229079294
 42
-0.4663076581549882
 97
        6
330
3BC
330
3C0
330
3C7
330
3B6
330
3D2
330
3BD
 75
     1
 76
     1
 47
0.91574565721239
 98
        9
 10
1884.0656027374
 20
970.0709583117605
 10
1884.0656027374
 20
970.0709583117605
 10
1884.0656027374
 20
970.0709583117605
 10
1884.0656027374
 20
970.0709583117605
 10
1884.0656027374
 20
970.0709583117605
 10
1884.0656027374
 20
970.0709583117605
 10
1884.0656027374
 20
970.0709583117605
 10
1884.0656027374
 20
970.0709583117605
 10
1601.762018489386
 20
936.1883689312699
450
        0
451
        0
460
0.0
461
0.0
452
        0
462
1.0
453
        2
463
0.0
 63
     5
421
      255
463
1.0
 63
     2
421
 16776960
470
LINEAR
1001
GradientColor1ACI
1070
     5
1001
GradientColor2ACI
1070
     2
1001
ACAD
1010
0.0
1020
0.0
1030
0.0
  0
HATCH
  5
60F
330
1F
100
AcDbEntity
  8
0
 62
    39
420
  5913129
430
RAL CLASSIC$RAL 8011
100
AcDbHatch
 10
0.0
 20
0.0
 30
0.0
210
0.0
220
0.0
230
1.0
  2
SOLID
 70
     1
 71
     1
 91
        4
 92
        7
 72
     1
 73
     1
 93
        6
 10
1542.399762769782
 20
978.1688783749284
 42
0.4663076581549955
 10
1539.445339510745
 20
981.6898229079292
 42
0.0
 10
1526.266061192413
 20
981.6898229079292
 42
0.0
 10
1522.607276342712
 20
960.9398229079294
 42
0.0
 10
1536.844516545295
 20
960.9398229079294
 42
0.3639702342662056
 10
1539.798939804332
 20
963.4188783749287
 42
0.0
 97
        6
330
3C4
330
3C3
330
3B7
330
3D4
330
3BF
330
3BE
 92
        7
 72
     1
 73
     1
 93
        6
 10
1536.360563680517
 20
943.9188783749287
 42
0.466307658155
 10
1533.40614042148
 20
947.4398229079294
 42
0.0
 10
1520.226862103148
 20
947.4398229079294
 42
0.0
 10
1516.568077253446
 20
926.6898229079297
 42
0.0
 10
1530.80531745603
 20
926.6898229079297
 42
0.3639702342662017
 10
1533.759740715067
 20
929.168878374929
 42
0.0
 97
        6
330
3BD
330
3D2
330
3B6
330
3C7
330
3C0
330
3BC
 92
        7
 72
     1
 73
     1
 93
        8
 10
1610.663033328884
 20
944.918878374929
 42
0.4663076581550049
 10
1607.708610069848
 20
948.4398229079298
 42
0.0
 10
1601.10833709259
 20
948.4398229079298
 42
0.3639702342661968
 10
1598.153913833554
 20
945.9607674409305
 42
0.0
 10
1595.200436906687
 20
929.2107674409306
 42
0.4663076581550049
 10
1598.154860165723
 20
925.6898229079299
 42
0.0
 10
1604.755133142981
 20
925.6898229079299
 42
0.3639702342661961
 10
1607.709556402017
 20
928.1688783749292
 42
0.0
 97
        8
330
3E6
330
3F8
330
3E4
330
3E2
330
3E3
330
3F5
330
3F6
330
3E5
 92
        7
 72
     1
 73
     1
 93
        8
 10
1659.911224005343
 20
944.9188783749288
 42
0.4663076581550014
 10
1656.956800746306
 20
948.4398229079298
 42
0.0
 10
1650.356527769049
 20
948.4398229079298
 42
0.3639702342661995
 10
1647.402104510012
 20
945.9607674409305
 42
0.0
 10
1644.448627583146
 20
929.2107674409308
 42
0.466307658154999
 10
1647.403050842182
 20
925.6898229079299
 42
0.0
 10
1654.00332381944
 20
925.6898229079299
 42
0.3639702342661993
 10
1656.957747078476
 20
928.1688783749292
 42
0.0
 97
        8
330
3EE
330
3FE
330
3EC
330
3EA
330
3EB
330
3FB
330
3FC
330
3ED
 75
     1
 76
     1
 47
0.3150778866682952
 98
        4
 10
1536.301157776984
 20
968.3315478884219
 10
1529.047842732458
 20
937.7689918064234
 10
1602.211716983792
 20
938.0840705544697
 10
1653.300287106924
 20
939.0293040493256
450
        0
451
        0
460
0.0
461
0.0
452
        0
462
1.0
453
        2
463
0.0
 63
     5
421
      255
463
1.0
 63
     2
421
 16776960
470
LINEAR
1001
GradientColor1ACI
1070
     5
1001
GradientColor2ACI
1070
     2
1001
ACAD
1010
0.0
1020
0.0
1030
0.0
  0
HATCH
  5
612
330
1F
100
AcDbEntity
  8
0
100
AcDbHatch
 10
0.0
 20
0.0
 30
0.0
210
0.0
220
0.0
230
1.0
  2
SOLID
 70
     1
 71
     0
 91
       13
 92
        7
 72
     0
 73
     1
 93
        4
 10
1503.768523440776
 20
511.3998575214786
 10
1266.131626703065
 20
511.3998575214782
 10
1266.131626703065
 20
497.8998575214789
 10
1501.388109201212
 20
497.8998575214784
 97
        0
 92
        7
 72
     0
 73
     1
 93
        4
 10
1497.729324351512
 20
477.1498575214791
 10
1266.131626703065
 20
477.1498575214791
 10
1266.131626703065
 20
463.6498575214789
 10
1495.348910111947
 20
463.6498575214789
 97
        0
 92
        7
 72
     0
 73
     1
 93
        4
 10
1491.690125262246
 20
442.8998575214789
 10
1266.131626703065
 20
442.8998575214786
 10
1266.131626703065
 20
429.3998575214791
 10
1489.309711022682
 20
429.3998575214791
 97
        0
 92
        7
 72
     1
 73
     1
 93
       10
 10
1545.96183446697
 20
436.8370239224768
 42
0.0
 10
1550.120827943055
 20
460.4238480113099
 42
0.4663076581549993
 10
1541.749962042452
 20
470.3998575214789
 42
0.0
 10
1544.327970898907
 20
470.3998575214789
 42
0.3639702342662028
 10
1553.191240676017
 20
477.8370239224766
 42
0.0
 10
1557.246761232311
 20
500.8370239224761
 42
0.4663076581549982
 10
1548.383491455202
 20
511.3998575214786
 42
0.0
 10
1514.93821617152
 20
511.3998575214786
 42
0.0
 10
1500.479403753424
 20
429.3998575214791
 42
0.0
 10
1537.09856468986
 20
429.3998575214791
 42
0.3639702342662016
 97
        0
 92
       22
 72
     1
 73
     1
 93
        6
 10
1516.568077253446
 20
442.8998575214791
 42
0.0
 10
1520.226862103148
 20
463.6498575214789
 42
0.0
 10
1533.40614042148
 20
463.6498575214789
 42
-0.466307658155001
 10
1536.360563680517
 20
460.128912988478
 42
0.0
 10
1533.759740715067
 20
445.3789129884783
 42
-0.363970234266201
 10
1530.80531745603
 20
442.8998575214791
 42
0.0
 97
        0
 92
       22
 72
     1
 73
     1
 93
        6
 10
1522.607276342712
 20
477.1498575214787
 42
0.0
 10
1526.266061192413
 20
497.8998575214786
 42
0.0
 10
1539.445339510745
 20
497.8998575214786
 42
-0.4663076581549954
 10
1542.399762769782
 20
494.3789129884778
 42
0.0
 10
1539.798939804332
 20
479.628912988478
 42
-0.3639702342662051
 10
1536.844516545295
 20
477.1498575214788
 42
0.0
 97
        0
 92
        7
 72
     1
 73
     1
 93
       21
 10
1668.320741199202
 20
436.8370239224771
 42
0.0
 10
1677.897559161436
 20
491.1498575214793
 42
0.0
 10
1665.296583089484
 20
491.1498575214793
 42
0.0
 10
1662.828005359566
 20
477.1498575214791
 42
0.0
 10
1644.902380166397
 20
477.1498575214791
 42
0.3639702342662021
 10
1636.039110389287
 20
469.7126911204816
 42
0.0
 10
1631.134957415828
 20
441.8998575214793
 42
0.0
 10
1619.965264685085
 20
441.8998575214793
 42
0.0
 10
1624.31827819882
 20
466.5870239224768
 42
0.4663076581550014
 10
1615.45500842171
 20
477.1498575214791
 42
0.0
 10
1595.654189489938
 20
477.1498575214791
 42
0.363970234266197
 10
1586.790919712828
 20
469.7126911204816
 42
0.0
 10
1581.886766739368
 20
441.8998575214795
 42
0.0
 10
1570.717074008626
 20
441.8998575214795
 42
0.0
 10
1576.932600078599
 20
477.1498575214791
 42
0.0
 10
1564.239767430027
 20
477.1498575214791
 42
0.0
 10
1558.024241360054
 20
441.8998575214795
 42
0.0
 10
1549.900828464968
 20
441.8998575214798
 42
0.0
 10
1548.916257726006
 20
436.3160793894762
 42
-0.1699919039033213
 10
1545.035818623054
 20
429.3998575214793
 42
0.0
 10
1659.457471422092
 20
429.3998575214793
 42
0.3639702342662054
 97
        0
 92
       22
 72
     1
 73
     1
 93
        8
 10
1595.200436906687
 20
445.4208020544801
 42
0.0
 10
1598.153913833554
 20
462.1708020544799
 42
-0.3639702342661959
 10
1601.10833709259
 20
464.6498575214791
 42
0.0
 10
1607.708610069848
 20
464.6498575214791
 42
-0.4663076581550037
 10
1610.663033328884
 20
461.1289129884783
 42
0.0
 10
1607.709556402017
 20
444.3789129884785
 42
-0.3639702342661959
 10
1604.755133142981
 20
441.8998575214793
 42
0.0
 10
1598.154860165723
 20
441.8998575214793
 42
-0.4663076581550044
 97
        0
 92
       22
 72
     1
 73
     1
 93
        8
 10
1644.448627583146
 20
445.4208020544801
 42
0.0
 10
1647.402104510012
 20
462.1708020544799
 42
-0.3639702342661998
 10
1650.356527769049
 20
464.6498575214791
 42
0.0
 10
1656.956800746306
 20
464.6498575214791
 42
-0.4663076581550012
 10
1659.911224005343
 20
461.1289129884783
 42
0.0
 10
1656.957747078476
 20
444.3789129884785
 42
-0.3639702342662002
 10
1654.00332381944
 20
441.8998575214793
 42
0.0
 10
1647.403050842182
 20
441.8998575214793
 42
-0.4663076581549908
 97
        0
 92
       23
 72
     0
 73
     1
 93
        4
 10
1579.401177808518
 20
491.1498575214793
 10
1566.708345159946
 20
491.1498575214789
 10
1564.768748372153
 20
480.1498575214789
 10
1577.461581020725
 20
480.1498575214791
 97
        0
 92
        7
 72
     0
 73
     1
 93
        4
 10
1866.131626703065
 20
511.3998575214786
 10
1570.278966519293
 20
511.3998575214782
 10
1567.898552279728
 20
497.8998575214786
 10
1866.131626703065
 20
497.8998575214786
 97
        0
 92
        7
 72
     0
 73
     1
 93
        4
 10
1866.131626703065
 20
477.1498575214793
 10
1686.59867416226
 20
477.1498575214788
 10
1684.218259922695
 20
463.6498575214789
 10
1866.131626703065
 20
463.6498575214789
 97
        0
 92
        7
 72
     0
 73
     1
 93
        4
 10
1866.131626703065
 20
442.8998575214786
 10
1680.559475072995
 20
442.8998575214789
 10
1678.17906083343
 20
429.3998575214791
 10
1866.131626703065
 20
429.3998575214791
 97
        0
 75
     1
 76
     1
 47
0.565603735444895
 98
       13
 10
1487.542399294837
 20
507.416647669253
 10
1471.125123561505
 20
471.783612246295
 10
1471.125123561505
 20
436.1505768233369
 10
1510.753030704611
 20
435.0193681276887
 10
1510.753030704611
 20
435.0193681276887
 10
1510.753030704611
 20
435.0193681276887
 10
1585.479937328645
 20
436.1505768233369
 10
1585.479937328645
 20
436.1505768233369
 10
1585.479937328645
 20
436.1505768233369
 10
1573.591569257488
 20
480.8332708143494
 10
1595.669973751717
 20
501.7606096895779
 10
1727.00817380155
 20
470.6524035506472
 10
1729.272621815815
 20
437.2817827697026
450
        0
451
        0
460
0.0
461
0.0
452
        0
462
1.0
453
        2
463
0.0
 63
     5
421
      255
463
1.0
 63
     2
421
 16776960
470
LINEAR
1001
GradientColor1ACI
1070
     5
1001
GradientColor2ACI
1070
     2
1001
ACAD
1010
0.0
1020
0.0
1030
0.0
  0
DIMENSION
  5
66B
330
1F
100
AcDbEntity
  8
0
100
AcDbDimension
280
     0
  2
*D3
 10
1866.131626703065
 20
396.5457412469618
 30
0.0
 11
1566.131626703065
 21
404.1514711241787
 31
0.0
 70
    32
  1
<> mm
 71
     5
 42
600.0000000000002
 73
     0
 74
     0
 75
     0
  3
ISO-25
100
AcDbAlignedDimension
 13
1266.131626703065
 23
429.3998575214791
 33
0.0
 14
1866.131626703065
 24
429.3998575214791
 34
0.0
100
AcDbRotatedDimension
  0
HATCH
  5
700
330
1F
100
AcDbEntity
  8
0
100
AcDbHatch
 10
0.0
 20
0.0
 30
0.0
210
0.0
220
0.0
230
1.0
  2
SOLID
 70
     1
 71
     1
 91
       13
 92
        7
 72
     0
 73
     1
 93
        4
 10
1503.768523440776
 20
995.1898229079292
 10
1266.131626703066
 20
995.1898229079288
 10
1266.131626703066
 20
981.6898229079296
 10
1501.388109201212
 20
981.689822907929
 97
        4
330
3B2
330
404
330
3B3
330
3B4
 92
        7
 72
     0
 73
     1
 93
        4
 10
1497.729324351512
 20
960.9398229079298
 10
1266.131626703065
 20
960.9398229079298
 10
1266.131626703065
 20
947.4398229079294
 10
1495.348910111947
 20
947.4398229079294
 97
        4
330
3D3
330
404
330
3D1
330
3D5
 92
        7
 72
     0
 73
     1
 93
        4
 10
1491.690125262246
 20
926.6898229079295
 10
1266.131626703065
 20
926.6898229079293
 10
1266.131626703065
 20
913.1898229079297
 10
1489.309711022682
 20
913.1898229079297
 97
        4
330
3B1
330
404
330
3B0
330
3C1
 92
        7
 72
     1
 73
     1
 93
       10
 10
1545.96183446697
 20
920.6269893089274
 42
0.0
 10
1550.120827943055
 20
944.2138133977605
 42
0.4663076581549993
 10
1541.749962042452
 20
954.1898229079295
 42
0.0
 10
1544.327970898907
 20
954.1898229079295
 42
0.3639702342662028
 10
1553.191240676017
 20
961.6269893089272
 42
0.0
 10
1557.246761232311
 20
984.6269893089269
 42
0.4663076581549984
 10
1548.383491455202
 20
995.1898229079292
 42
0.0
 10
1514.93821617152
 20
995.1898229079292
 42
0.0
 10
1500.479403753424
 20
913.1898229079297
 42
0.0
 10
1537.09856468986
 20
913.1898229079297
 42
0.3639702342662016
 97
       10
330
3B8
330
3CB
330
3CA
330
3BB
330
3BA
330
3C5
330
3C2
330
3B5
330
3C6
330
3C8
 92
       22
 72
     1
 73
     1
 93
        6
 10
1530.80531745603
 20
926.6898229079297
 42
0.0
 10
1516.568077253446
 20
926.6898229079297
 42
0.0
 10
1520.226862103148
 20
947.4398229079294
 42
0.0
 10
1533.40614042148
 20
947.4398229079294
 42
-0.4663076581550008
 10
1536.360563680517
 20
943.9188783749287
 42
0.0
 10
1533.759740715067
 20
929.168878374929
 42
-0.3639702342662078
 97
        6
330
3C7
330
3B6
330
3D2
330
3BD
330
3BC
330
3C0
 92
       22
 72
     1
 73
     1
 93
        6
 10
1522.607276342712
 20
960.9398229079294
 42
0.0
 10
1526.266061192413
 20
981.6898229079292
 42
0.0
 10
1539.445339510745
 20
981.6898229079292
 42
-0.4663076581549952
 10
1542.399762769782
 20
978.1688783749284
 42
0.0
 10
1539.798939804332
 20
963.4188783749287
 42
-0.3639702342662058
 10
1536.844516545295
 20
960.9398229079294
 42
0.0
 97
        6
330
3B7
330
3C3
330
3C4
330
3BE
330
3BF
330
3D4
 92
        7
 72
     1
 73
     1
 93
       21
 10
1668.320741199202
 20
920.6269893089276
 42
0.0
 10
1677.897559161436
 20
974.93982290793
 42
0.0
 10
1665.296583089484
 20
974.93982290793
 42
0.0
 10
1662.828005359566
 20
960.9398229079298
 42
0.0
 10
1644.902380166397
 20
960.9398229079298
 42
0.3639702342662016
 10
1636.039110389287
 20
953.5026565069321
 42
0.0
 10
1631.134957415828
 20
925.6898229079299
 42
0.0
 10
1619.965264685085
 20
925.6898229079299
 42
0.0
 10
1624.31827819882
 20
950.3769893089273
 42
0.4663076581550011
 10
1615.45500842171
 20
960.9398229079298
 42
0.0
 10
1595.654189489938
 20
960.9398229079298
 42
0.363970234266197
 10
1586.790919712828
 20
953.5026565069323
 42
0.0
 10
1581.886766739368
 20
925.6898229079302
 42
0.0
 10
1570.717074008626
 20
925.6898229079302
 42
0.0
 10
1576.932600078599
 20
960.9398229079298
 42
0.0
 10
1564.239767430027
 20
960.9398229079298
 42
0.0
 10
1558.024241360054
 20
925.6898229079302
 42
0.0
 10
1549.900828464968
 20
925.6898229079304
 42
0.0
 10
1548.916257726006
 20
920.1060447759269
 42
-0.1699919039033262
 10
1545.035818623054
 20
913.1898229079299
 42
0.0
 10
1659.457471422092
 20
913.1898229079299
 42
0.3639702342661997
 97
       21
330
3EF
330
400
330
401
330
3FD
330
3E9
330
3E8
330
3FF
330
3E7
330
3F1
330
3F7
330
3E1
330
3E0
330
3F9
330
3DF
330
3DA
330
3DE
330
3FA
330
3B9
330
3C9
330
3F4
330
3F0
 92
       22
 72
     1
 73
     1
 93
        8
 10
1595.200436906687
 20
929.2107674409306
 42
0.0
 10
1598.153913833554
 20
945.9607674409305
 42
-0.3639702342661975
 10
1601.10833709259
 20
948.4398229079298
 42
0.0
 10
1607.708610069848
 20
948.4398229079298
 42
-0.4663076581550035
 10
1610.663033328884
 20
944.918878374929
 42
0.0
 10
1607.709556402017
 20
928.1688783749292
 42
-0.3639702342661975
 10
1604.755133142981
 20
925.6898229079299
 42
0.0
 10
1598.154860165723
 20
925.6898229079299
 42
-0.4663076581550035
 97
        8
330
3E2
330
3E4
330
3F8
330
3E6
330
3E5
330
3F6
330
3F5
330
3E3
 92
       22
 72
     1
 73
     1
 93
        8
 10
1644.448627583146
 20
929.2107674409308
 42
0.0
 10
1647.402104510012
 20
945.9607674409305
 42
-0.3639702342662006
 10
1650.356527769049
 20
948.4398229079298
 42
0.0
 10
1656.956800746306
 20
948.4398229079298
 42
-0.4663076581549999
 10
1659.911224005343
 20
944.9188783749288
 42
0.0
 10
1656.957747078476
 20
928.1688783749292
 42
-0.3639702342662017
 10
1654.00332381944
 20
925.6898229079299
 42
0.0
 10
1647.403050842182
 20
925.6898229079299
 42
-0.4663076581550058
 97
        8
330
3EA
330
3EC
330
3FE
330
3EE
330
3ED
330
3FC
330
3FB
330
3EB
 92
       23
 72
     0
 73
     1
 93
        4
 10
1579.401177808518
 20
974.93982290793
 10
1566.708345159946
 20
974.9398229079295
 10
1564.768748372153
 20
963.9398229079295
 10
1577.461581020725
 20
963.9398229079297
 97
        4
330
3DC
330
3F2
330
3DB
330
3F3
 92
        7
 72
     0
 73
     1
 93
        4
 10
2716.131626703065
 20
995.1898229079292
 10
1570.278966519293
 20
995.1898229079288
 10
1567.898552279728
 20
981.6898229079292
 10
2716.131626703065
 20
981.6898229079292
 97
        4
330
3CC
330
3D0
330
3CD
330
405
 92
        7
 72
     0
 73
     1
 93
        4
 10
2716.131626703065
 20
960.93982290793
 10
1686.59867416226
 20
960.9398229079294
 10
1684.218259922695
 20
947.4398229079294
 10
2716.131626703065
 20
947.4398229079294
 97
        4
330
3D6
330
3D9
330
3D7
330
405
 92
        7
 72
     0
 73
     1
 93
        4
 10
2716.131626703065
 20
926.6898229079293
 10
1680.559475072995
 20
926.6898229079295
 10
1678.17906083343
 20
913.1898229079297
 10
2716.131626703065
 20
913.1898229079297
 97
        4
330
3CE
330
3D8
330
3CF
330
405
 75
     1
 76
     1
 47
1.135337948210522
 98
       13
 10
1442.567303080935
 20
987.5758173823671
 10
1438.021864011165
 20
956.9216937042773
 10
1423.249184126002
 20
916.0495269673031
 10
1532.339750884584
 20
916.0495269673031
 10
1532.339750884584
 20
916.0495269673031
 10
1532.339750884584
 20
916.0495269673031
 10
1594.839552635971
 20
914.9141888496494
 10
1594.839552635971
 20
914.9141888496494
 10
1594.839552635971
 20
914.9141888496494
 10
1568.703275076384
 20
970.5457483668412
 10
1609.612232521132
 20
988.7111555000208
 10
1823.247926968524
 20
955.7863555866235
 10
1810.747966618247
 20
918.3202032026109
450
        0
451
        0
460
0.0
461
0.0
452
        0
462
1.0
453
        2
463
0.0
 63
     5
421
      255
463
1.0
 63
     2
421
 16776960
470
LINEAR
1001
GradientColor1ACI
1070
     5
1001
GradientColor2ACI
1070
     2
1001
ACAD
1010
0.0
1020
0.0
1030
0.0
  0
HATCH
  5
703
330
1F
100
AcDbEntity
  8
0
 62
    39
420
  5913129
430
RAL CLASSIC$RAL 8011
100
AcDbHatch
 10
0.0
 20
0.0
 30
0.0
210
0.0
220
0.0
230
1.0
  2
SOLID
 70
     1
 71
     0
 91
        8
 92
        7
 72
     0
 73
     1
 93
       28
 10
2716.131626703065
 20
283.5118571189685
 10
2716.131626703065
 20
304.2618571189678
 10
1567.898552279728
 20
304.2618571189678
 10
1570.278966519293
 20
317.7618571189673
 10
2716.131626703065
 20
317.7618571189678
 10
2716.131626703065
 20
324.7618571189679
 10
1266.131626703066
 20
324.7618571189672
 10
1266.131626703066
 20
317.7618571189673
 10
1503.768523440776
 20
317.7618571189678
 10
1501.388109201212
 20
304.2618571189676
 10
1266.131626703066
 20
304.261857118968
 10
1266.131626703065
 20
283.5118571189682
 10
1497.729324351512
 20
283.5118571189682
 10
1495.348910111947
 20
270.011857118968
 10
1266.131626703065
 20
270.011857118968
 10
1266.131626703065
 20
249.2618571189678
 10
1491.690125262246
 20
249.261857118968
 10
1489.309711022682
 20
235.7618571189682
 10
1266.131626703065
 20
235.7618571189682
 10
1266.131626703065
 20
228.7618571189682
 10
2716.131626703065
 20
228.7618571189681
 10
2716.131626703065
 20
235.7618571189682
 10
1678.17906083343
 20
235.7618571189682
 10
1680.559475072995
 20
249.261857118968
 10
2716.131626703065
 20
249.2618571189678
 10
2716.131626703065
 20
270.011857118968
 10
1684.218259922695
 20
270.011857118968
 10
1686.59867416226
 20
283.511857118968
 97
        0
 92
       22
 72
     1
 73
     1
 93
       21
 10
1677.897559161436
 20
297.5118571189685
 42
0.0
 10
1668.320741199202
 20
243.1990235199661
 42
-0.3639702342661997
 10
1659.457471422092
 20
235.7618571189685
 42
0.0
 10
1545.035818623054
 20
235.7618571189685
 42
0.1699919039033248
 10
1548.916257726006
 20
242.6780789869654
 42
0.0
 10
1549.900828464968
 20
248.2618571189689
 42
0.0
 10
1558.024241360054
 20
248.2618571189687
 42
0.0
 10
1564.239767430027
 20
283.5118571189682
 42
0.0
 10
1576.932600078599
 20
283.5118571189682
 42
0.0
 10
1570.717074008626
 20
248.2618571189687
 42
0.0
 10
1581.886766739368
 20
248.2618571189687
 42
0.0
 10
1586.790919712828
 20
276.0746907179708
 42
-0.3639702342661957
 10
1595.654189489938
 20
283.5118571189682
 42
0.0
 10
1615.45500842171
 20
283.5118571189682
 42
-0.4663076581550007
 10
1624.31827819882
 20
272.9490235199659
 42
0.0
 10
1619.965264685085
 20
248.2618571189685
 42
0.0
 10
1631.134957415828
 20
248.2618571189685
 42
0.0
 10
1636.039110389287
 20
276.0746907179706
 42
-0.3639702342662016
 10
1644.902380166397
 20
283.5118571189682
 42
0.0
 10
1662.828005359566
 20
283.5118571189682
 42
0.0
 10
1665.296583089484
 20
297.5118571189685
 42
0.0
 97
        0
 92
        6
 72
     1
 73
     1
 93
        8
 10
1659.911224005343
 20
267.4909125859674
 42
0.0
 10
1656.957747078476
 20
250.7409125859676
 42
-0.3639702342662006
 10
1654.00332381944
 20
248.2618571189685
 42
0.0
 10
1647.403050842182
 20
248.2618571189685
 42
-0.4663076581549999
 10
1644.448627583146
 20
251.7828016519693
 42
0.0
 10
1647.402104510012
 20
268.532801651969
 42
-0.3639702342662008
 10
1650.356527769049
 20
271.0118571189682
 42
0.0
 10
1656.956800746306
 20
271.0118571189682
 42
-0.4663076581549964
 97
        0
 92
        6
 72
     1
 73
     1
 93
        8
 10
1610.663033328884
 20
267.4909125859674
 42
0.0
 10
1607.709556402017
 20
250.7409125859676
 42
-0.3639702342661948
 10
1604.755133142981
 20
248.2618571189685
 42
0.0
 10
1598.154860165723
 20
248.2618571189685
 42
-0.4663076581550119
 10
1595.200436906687
 20
251.7828016519692
 42
0.0
 10
1598.153913833554
 20
268.5328016519692
 42
-0.3639702342661937
 10
1601.10833709259
 20
271.0118571189682
 42
0.0
 10
1607.708610069848
 20
271.0118571189682
 42
-0.4663076581550138
 97
        0
 92
       22
 72
     0
 73
     1
 93
        4
 10
1579.401177808518
 20
297.5118571189685
 10
1577.461581020725
 20
286.5118571189682
 10
1564.768748372153
 20
286.511857118968
 10
1566.708345159946
 20
297.511857118968
 97
        0
 92
       22
 72
     1
 73
     1
 93
       10
 10
1557.246761232311
 20
307.1990235199652
 42
0.0
 10
1553.191240676017
 20
284.1990235199657
 42
-0.3639702342662035
 10
1544.327970898907
 20
276.761857118968
 42
0.0
 10
1541.749962042452
 20
276.761857118968
 42
-0.4663076581549989
 10
1550.120827943055
 20
266.785847608799
 42
0.0
 10
1545.96183446697
 20
243.1990235199659
 42
-0.3639702342662025
 10
1537.09856468986
 20
235.7618571189682
 42
0.0
 10
1500.479403753424
 20
235.7618571189682
 42
0.0
 10
1514.93821617152
 20
317.7618571189678
 42
0.0
 10
1548.383491455202
 20
317.7618571189678
 42
-0.4663076581550055
 97
        0
 92
        6
 72
     1
 73
     1
 93
        6
 10
1542.399762769782
 20
300.740912585967
 42
0.0
 10
1539.798939804332
 20
285.9909125859673
 42
-0.363970234266205
 10
1536.844516545295
 20
283.511857118968
 42
0.0
 10
1522.607276342712
 20
283.511857118968
 42
0.0
 10
1526.266061192413
 20
304.2618571189678
 42
0.0
 10
1539.445339510745
 20
304.2618571189678
 42
-0.4663076581549938
 97
        0
 92
        6
 72
     1
 73
     1
 93
        6
 10
1536.360563680517
 20
266.4909125859672
 42
0.0
 10
1533.759740715067
 20
251.7409125859675
 42
-0.3639702342662017
 10
1530.80531745603
 20
249.2618571189682
 42
0.0
 10
1516.568077253446
 20
249.2618571189682
 42
0.0
 10
1520.226862103148
 20
270.011857118968
 42
0.0
 10
1533.40614042148
 20
270.011857118968
 42
-0.4663076581549882
 97
        0
 75
     1
 76
     1
 47
0.91574565721239
 98
        9
 10
1884.0656027374
 20
292.642992522799
 10
1884.0656027374
 20
292.642992522799
 10
1884.0656027374
 20
292.642992522799
 10
1884.0656027374
 20
292.642992522799
 10
1884.0656027374
 20
292.642992522799
 10
1884.0656027374
 20
292.642992522799
 10
1884.0656027374
 20
292.642992522799
 10
1884.0656027374
 20
292.642992522799
 10
1601.762018489386
 20
258.7604031423084
450
        0
451
        0
460
0.0
461
0.0
452
        0
462
1.0
453
        2
463
0.0
 63
     5
421
      255
463
1.0
 63
     2
421
 16776960
470
LINEAR
1001
GradientColor1ACI
1070
     5
1001
GradientColor2ACI
1070
     2
1001
ACAD
1010
0.0
1020
0.0
1030
0.0
  0
HATCH
  5
704
330
1F
100
AcDbEntity
  8
0
100
AcDbHatch
 10
0.0
 20
0.0
 30
0.0
210
0.0
220
0.0
230
1.0
  2
SOLID
 70
     1
 71
     0
 91
       13
 92
        7
 72
     0
 73
     1
 93
        4
 10
1503.768523440776
 20
317.7618571189678
 10
1266.131626703066
 20
317.7618571189673
 10
1266.131626703066
 20
304.261857118968
 10
1501.388109201212
 20
304.2618571189676
 97
        0
 92
        7
 72
     0
 73
     1
 93
        4
 10
1497.729324351512
 20
283.5118571189682
 10
1266.131626703065
 20
283.5118571189682
 10
1266.131626703065
 20
270.011857118968
 10
1495.348910111947
 20
270.011857118968
 97
        0
 92
        7
 72
     0
 73
     1
 93
        4
 10
1491.690125262246
 20
249.261857118968
 10
1266.131626703065
 20
249.2618571189678
 10
1266.131626703065
 20
235.7618571189682
 10
1489.309711022682
 20
235.7618571189682
 97
        0
 92
        7
 72
     1
 73
     1
 93
       10
 10
1545.96183446697
 20
243.1990235199659
 42
0.0
 10
1550.120827943055
 20
266.785847608799
 42
0.4663076581549993
 10
1541.749962042452
 20
276.761857118968
 42
0.0
 10
1544.327970898907
 20
276.761857118968
 42
0.3639702342662028
 10
1553.191240676017
 20
284.1990235199657
 42
0.0
 10
1557.246761232311
 20
307.1990235199654
 42
0.4663076581549984
 10
1548.383491455202
 20
317.7618571189678
 42
0.0
 10
1514.93821617152
 20
317.7618571189678
 42
0.0
 10
1500.479403753424
 20
235.7618571189682
 42
0.0
 10
1537.09856468986
 20
235.7618571189682
 42
0.3639702342662016
 97
        0
 92
       22
 72
     1
 73
     1
 93
        6
 10
1530.80531745603
 20
249.2618571189682
 42
0.0
 10
1516.568077253446
 20
249.2618571189682
 42
0.0
 10
1520.226862103148
 20
270.011857118968
 42
0.0
 10
1533.40614042148
 20
270.011857118968
 42
-0.4663076581550008
 10
1536.360563680517
 20
266.4909125859672
 42
0.0
 10
1533.759740715067
 20
251.7409125859675
 42
-0.3639702342662078
 97
        0
 92
       22
 72
     1
 73
     1
 93
        6
 10
1522.607276342712
 20
283.511857118968
 42
0.0
 10
1526.266061192413
 20
304.2618571189678
 42
0.0
 10
1539.445339510745
 20
304.2618571189678
 42
-0.4663076581549952
 10
1542.399762769782
 20
300.740912585967
 42
0.0
 10
1539.798939804332
 20
285.9909125859673
 42
-0.3639702342662058
 10
1536.844516545295
 20
283.511857118968
 42
0.0
 97
        0
 92
        7
 72
     1
 73
     1
 93
       21
 10
1668.320741199202
 20
243.1990235199661
 42
0.0
 10
1677.897559161436
 20
297.5118571189685
 42
0.0
 10
1665.296583089484
 20
297.5118571189685
 42
0.0
 10
1662.828005359566
 20
283.5118571189682
 42
0.0
 10
1644.902380166397
 20
283.5118571189682
 42
0.3639702342662016
 10
1636.039110389287
 20
276.0746907179706
 42
0.0
 10
1631.134957415828
 20
248.2618571189685
 42
0.0
 10
1619.965264685085
 20
248.2618571189685
 42
0.0
 10
1624.31827819882
 20
272.9490235199659
 42
0.4663076581550011
 10
1615.45500842171
 20
283.5118571189682
 42
0.0
 10
1595.654189489938
 20
283.5118571189682
 42
0.363970234266197
 10
1586.790919712828
 20
276.0746907179708
 42
0.0
 10
1581.886766739368
 20
248.2618571189687
 42
0.0
 10
1570.717074008626
 20
248.2618571189687
 42
0.0
 10
1576.932600078599
 20
283.5118571189682
 42
0.0
 10
1564.239767430027
 20
283.5118571189682
 42
0.0
 10
1558.024241360054
 20
248.2618571189687
 42
0.0
 10
1549.900828464968
 20
248.2618571189689
 42
0.0
 10
1548.916257726006
 20
242.6780789869655
 42
-0.1699919039033262
 10
1545.035818623054
 20
235.7618571189685
 42
0.0
 10
1659.457471422092
 20
235.7618571189685
 42
0.3639702342661997
 97
        0
 92
       22
 72
     1
 73
     1
 93
        8
 10
1595.200436906687
 20
251.7828016519692
 42
0.0
 10
1598.153913833554
 20
268.5328016519691
 42
-0.3639702342661975
 10
1601.10833709259
 20
271.0118571189682
 42
0.0
 10
1607.708610069848
 20
271.0118571189682
 42
-0.4663076581550035
 10
1610.663033328884
 20
267.4909125859675
 42
0.0
 10
1607.709556402017
 20
250.7409125859676
 42
-0.3639702342661975
 10
1604.755133142981
 20
248.2618571189685
 42
0.0
 10
1598.154860165723
 20
248.2618571189685
 42
-0.4663076581550035
 97
        0
 92
       22
 72
     1
 73
     1
 93
        8
 10
1644.448627583146
 20
251.7828016519694
 42
0.0
 10
1647.402104510012
 20
268.5328016519691
 42
-0.3639702342662006
 10
1650.356527769049
 20
271.0118571189682
 42
0.0
 10
1656.956800746306
 20
271.0118571189682
 42
-0.4663076581549999
 10
1659.911224005343
 20
267.4909125859674
 42
0.0
 10
1656.957747078476
 20
250.7409125859677
 42
-0.3639702342662017
 10
1654.00332381944
 20
248.2618571189685
 42
0.0
 10
1647.403050842182
 20
248.2618571189685
 42
-0.4663076581550058
 97
        0
 92
       23
 72
     0
 73
     1
 93
        4
 10
1579.401177808518
 20
297.5118571189685
 10
1566.708345159946
 20
297.511857118968
 10
1564.768748372153
 20
286.511857118968
 10
1577.461581020725
 20
286.5118571189682
 97
        0
 92
        7
 72
     0
 73
     1
 93
        4
 10
2716.131626703065
 20
317.7618571189678
 10
1570.278966519293
 20
317.7618571189673
 10
1567.898552279728
 20
304.2618571189678
 10
2716.131626703065
 20
304.2618571189678
 97
        0
 92
        7
 72
     0
 73
     1
 93
        4
 10
2716.131626703065
 20
283.5118571189685
 10
1686.59867416226
 20
283.511857118968
 10
1684.218259922695
 20
270.011857118968
 10
2716.131626703065
 20
270.011857118968
 97
        0
 92
        7
 72
     0
 73
     1
 93
        4
 10
2716.131626703065
 20
249.2618571189678
 10
1680.559475072995
 20
249.261857118968
 10
1678.17906083343
 20
235.7618571189682
 10
2716.131626703065
 20
235.7618571189682
 97
        0
 75
     1
 76
     1
 47
1.135337948210522
 98
       13
 10
1442.567303080935
 20
310.1478515934057
 10
1438.021864011165
 20
279.4937279153157
 10
1423.249184126002
 20
238.6215611783416
 10
1532.339750884584
 20
238.6215611783416
 10
1532.339750884584
 20
238.6215611783416
 10
1532.339750884584
 20
238.6215611783416
 10
1594.839552635971
 20
237.486223060688
 10
1594.839552635971
 20
237.486223060688
 10
1594.839552635971
 20
237.486223060688
 10
1568.703275076384
 20
293.1177825778798
 10
1609.612232521132
 20
311.2831897110593
 10
1823.247926968524
 20
278.3583897976621
 10
1810.747966618247
 20
240.8922374136494
450
        0
451
        0
460
0.0
461
0.0
452
        0
462
1.0
453
        2
463
0.0
 63
     5
421
      255
463
1.0
 63
     2
421
 16776960
470
LINEAR
1001
GradientColor1ACI
1070
     5
1001
GradientColor2ACI
1070
     2
1001
ACAD
1010
0.0
1020
0.0
1030
0.0
  0
LINE
  5
706
330
1F
100
AcDbEntity
  8
0
100
AcDbLine
 10
1266.131626703065
 20
228.7618571189682
 30
0.0
 11
2716.131626703065
 21
228.7618571189681
 31
0.0
  0
LINE
  5
723
330
1F
100
AcDbEntity
  8
0
100
AcDbLine
 10
1570.278966519293
 20
317.7618571189673
 30
0.0
 11
2716.131626703065
 21
317.7618571189678
 31
0.0
  0
LINE
  5
724
330
1F
100
AcDbEntity
  8
0
100
AcDbLine
 10
1266.131626703066
 20
324.7618571189672
 30
0.0
 11
2716.131626703065
 21
324.7618571189679
 31
0.0
  0
LINE
  5
725
330
1F
100
AcDbEntity
  8
0
100
AcDbLine
 10
1567.898552279729
 20
304.2618571189678
 30
0.0
 11
2716.131626703065
 21
304.2618571189678
 31
0.0
  0
LINE
  5
726
330
1F
100
AcDbEntity
  8
0
100
AcDbLine
 10
1680.559475072995
 20
249.261857118968
 30
0.0
 11
2716.131626703065
 21
249.2618571189678
 31
0.0
  0
LINE
  5
727
330
1F
100
AcDbEntity
  8
0
100
AcDbLine
 10
1678.17906083343
 20
235.7618571189682
 30
0.0
 11
2716.131626703065
 21
235.7618571189682
 31
0.0
  0
LINE
  5
72E
330
1F
100
AcDbEntity
  8
0
100
AcDbLine
 10
1686.59867416226
 20
283.511857118968
 30
0.0
 11
2716.131626703065
 21
283.5118571189685
 31
0.0
  0
LINE
  5
72F
330
1F
100
AcDbEntity
  8
0
100
AcDbLine
 10
1684.218259922695
 20
270.011857118968
 30
0.0
 11
2716.131626703065
 21
270.011857118968
 31
0.0
  0
DIMENSION
  5
75C
330
1F
100
AcDbEntity
  8
0
100
AcDbDimension
280
     0
  2
*D4
 10
2716.131626703065
 20
202.9077408444509
 30
0.0
 11
1991.131626703065
 21
210.5134707216679
 31
0.0
 70
    32
  1
<> mm
 71
     5
 42
1450.0
 73
     0
 74
     0
 75
     0
  3
ISO-25
100
AcDbAlignedDimension
 13
1266.131626703065
 23
228.7618571189682
 33
0.0
 14
2716.131626703065
 24
228.7618571189682
 34
0.0
100
AcDbRotatedDimension
  0
MTEXT
  5
75D
330
1F
100
AcDbEntity
  8
0
100
AcDbMText
 10
1690.367361713895
 20
246.3013458547885
 30
0.0
 40
7.5
 41
196.6739758259537
 46
0.0
 71
     1
 72
     5
  1
{\W0.75;\C39;\c2701914;OLDENZAAL HOLLAND}
 73
     1
 44
1.0
1001
ACAD
1000
ACAD_MTEXT_COLUMN_INFO_BEGIN
1070
    75
1070
     2
1070
    79
1070
     0
1070
    76
1070
     1
1070
    78
1070
     0
1070
    48
1040
196.6739758259537
1070
    49
1040
12.5
1070
    50
1070
     1
1040
0.0
1000
ACAD_MTEXT_COLUMN_INFO_END
  0
HATCH
  5
773
330
1F
100
AcDbEntity
  8
0
 62
    39
420
  5913129
430
RAL CLASSIC$RAL 8011
100
AcDbHatch
 10
0.0
 20
0.0
 30
0.0
210
0.0
220
0.0
230
1.0
  2
SOLID
 70
     1
 71
     1
 91
        4
 92
        7
 72
     1
 73
     1
 93
        6
 10
1542.399762769782
 20
300.740912585967
 42
0.4663076581549955
 10
1539.445339510745
 20
304.2618571189678
 42
0.0
 10
1526.266061192413
 20
304.2618571189678
 42
0.0
 10
1522.607276342712
 20
283.511857118968
 42
0.0
 10
1536.844516545295
 20
283.511857118968
 42
0.3639702342662056
 10
1539.798939804332
 20
285.9909125859673
 42
0.0
 97
        6
330
3C4
330
3C3
330
3B7
330
3D4
330
3BF
330
3BE
 92
        7
 72
     1
 73
     1
 93
        6
 10
1536.360563680517
 20
266.4909125859672
 42
0.466307658155
 10
1533.40614042148
 20
270.011857118968
 42
0.0
 10
1520.226862103148
 20
270.011857118968
 42
0.0
 10
1516.568077253446
 20
249.2618571189682
 42
0.0
 10
1530.80531745603
 20
249.2618571189682
 42
0.3639702342662017
 10
1533.759740715067
 20
251.7409125859675
 42
0.0
 97
        6
330
3BD
330
3D2
330
3B6
330
3C7
330
3C0
330
3BC
 92
        7
 72
     1
 73
     1
 93
        8
 10
1610.663033328884
 20
267.4909125859675
 42
0.4663076581550049
 10
1607.708610069848
 20
271.0118571189682
 42
0.0
 10
1601.10833709259
 20
271.0118571189682
 42
0.3639702342661968
 10
1598.153913833554
 20
268.5328016519691
 42
0.0
 10
1595.200436906687
 20
251.7828016519692
 42
0.4663076581550049
 10
1598.154860165723
 20
248.2618571189685
 42
0.0
 10
1604.755133142981
 20
248.2618571189685
 42
0.3639702342661961
 10
1607.709556402017
 20
250.7409125859676
 42
0.0
 97
        8
330
3E6
330
3F8
330
3E4
330
3E2
330
3E3
330
3F5
330
3F6
330
3E5
 92
        7
 72
     1
 73
     1
 93
        8
 10
1659.911224005343
 20
267.4909125859673
 42
0.4663076581550014
 10
1656.956800746306
 20
271.0118571189682
 42
0.0
 10
1650.356527769049
 20
271.0118571189682
 42
0.3639702342661995
 10
1647.402104510012
 20
268.532801651969
 42
0.0
 10
1644.448627583146
 20
251.7828016519693
 42
0.466307658154999
 10
1647.403050842182
 20
248.2618571189685
 42
0.0
 10
1654.00332381944
 20
248.2618571189685
 42
0.3639702342661993
 10
1656.957747078476
 20
250.7409125859676
 42
0.0
 97
        8
330
3EE
330
3FE
330
3EC
330
3EA
330
3EB
330
3FB
330
3FC
330
3ED
 75
     1
 76
     1
 47
0.3150778866682952
 98
        4
 10
1536.301157776984
 20
290.9035820994605
 10
1529.047842732458
 20
260.3410260174619
 10
1602.211716983792
 20
260.6561047655082
 10
1653.300287106924
 20
261.6013382603642
450
        0
451
        0
460
0.0
461
0.0
452
        0
462
1.0
453
        2
463
0.0
 63
     5
421
      255
463
1.0
 63
     2
421
 16776960
470
LINEAR
1001
GradientColor1ACI
1070
     5
1001
GradientColor2ACI
1070
     2
1001
ACAD
1010
0.0
1020
0.0
1030
0.0
  0
LINE
  5
78D
102
{ACAD_REACTORS
330
AFE
102
}
330
1F
100
AcDbEntity
  8
0
100
AcDbLine
 10
2273.510458392414
 20
1114.621397622856
 30
0.0
 11
2801.010458392413
 21
1114.621397622856
 31
0.0
  0
LINE
  5
78E
102
{ACAD_REACTORS
330
AFE
102
}
330
1F
100
AcDbEntity
  8
0
100
AcDbLine
 10
2273.510458392414
 20
1162.621397622856
 30
0.0
 11
2801.010458392413
 21
1162.621397622856
 31
0.0
  0
LINE
  5
78F
102
{ACAD_REACTORS
330
AFE
102
}
330
1F
100
AcDbEntity
  8
0
100
AcDbLine
 10
2273.510458392414
 20
1150.121397622855
 30
0.0
 11
2801.010458392413
 21
1150.121397622855
 31
0.0
  0
LINE
  5
790
102
{ACAD_REACTORS
330
AFE
102
}
330
1F
100
AcDbEntity
  8
0
100
AcDbLine
 10
2273.510458392414
 20
1127.121397622856
 30
0.0
 11
2801.010458392413
 21
1127.121397622856
 31
0.0
  0
LINE
  5
791
102
{ACAD_REACTORS
330
AFE
102
}
330
1F
100
AcDbEntity
  8
0
100
AcDbLine
 10
2273.510458392414
 20
1162.621397622856
 30
0.0
 11
2273.510458392414
 21
1150.121397622855
 31
0.0
  0
LINE
  5
792
102
{ACAD_REACTORS
330
AFE
102
}
330
1F
100
AcDbEntity
  8
0
100
AcDbLine
 10
2273.510458392414
 20
1127.121397622856
 30
0.0
 11
2273.510458392414
 21
1114.621397622856
 31
0.0
  0
LINE
  5
793
102
{ACAD_REACTORS
330
AE6
102
}
330
1F
100
AcDbEntity
  8
0
100
AcDbLine
 10
2260.510458392414
 20
1114.621397622856
 30
0.0
 11
2233.010458392414
 21
1114.621397622856
 31
0.0
  0
LINE
  5
794
102
{ACAD_REACTORS
330
AE6
102
}
330
1F
100
AcDbEntity
  8
0
100
AcDbLine
 10
2260.510458392414
 20
1162.621397622855
 30
0.0
 11
2260.510458392414
 21
1156.621397622855
 31
0.0
  0
LINE
  5
795
102
{ACAD_REACTORS
330
AE6
102
}
330
1F
100
AcDbEntity
  8
0
100
AcDbLine
 10
2233.010458392414
 20
1162.621397622855
 30
0.0
 11
2233.010458392414
 21
1114.621397622856
 31
0.0
  0
LINE
  5
796
102
{ACAD_REACTORS
330
AE6
102
}
330
1F
100
AcDbEntity
  8
0
100
AcDbLine
 10
2260.510458392414
 20
1162.621397622855
 30
0.0
 11
2233.010458392414
 21
1162.621397622855
 31
0.0
  0
LINE
  5
797
102
{ACAD_REACTORS
330
AE6
102
}
330
1F
100
AcDbEntity
  8
0
100
AcDbLine
 10
2260.510458392414
 20
1120.621397622856
 30
0.0
 11
2239.010458392414
 21
1120.621397622856
 31
0.0
  0
LINE
  5
798
102
{ACAD_REACTORS
330
AE6
102
}
330
1F
100
AcDbEntity
  8
0
100
AcDbLine
 10
2239.010458392414
 20
1156.621397622855
 30
0.0
 11
2239.010458392414
 21
1141.621397622855
 31
0.0
  0
LINE
  5
799
102
{ACAD_REACTORS
330
AE6
102
}
330
1F
100
AcDbEntity
  8
0
100
AcDbLine
 10
2260.510458392414
 20
1156.621397622855
 30
0.0
 11
2239.010458392414
 21
1156.621397622855
 31
0.0
  0
LINE
  5
79B
102
{ACAD_REACTORS
330
AE6
102
}
330
1F
100
AcDbEntity
  8
0
100
AcDbLine
 10
2239.010458392414
 20
1141.621397622855
 30
0.0
 11
2259.510458392414
 21
1141.621397622855
 31
0.0
  0
LINE
  5
79C
102
{ACAD_REACTORS
330
AE6
102
}
330
1F
100
AcDbEntity
  8
0
100
AcDbLine
 10
2239.010458392414
 20
1135.621397622855
 30
0.0
 11
2259.510458392414
 21
1135.621397622855
 31
0.0
  0
LINE
  5
79D
102
{ACAD_REACTORS
330
AE6
102
}
330
1F
100
AcDbEntity
  8
0
100
AcDbLine
 10
2259.510458392414
 20
1141.621397622855
 30
0.0
 11
2259.510458392414
 21
1135.621397622855
 31
0.0
  0
LINE
  5
79E
102
{ACAD_REACTORS
330
AE6
102
}
330
1F
100
AcDbEntity
  8
0
100
AcDbLine
 10
2260.510458392414
 20
1120.621397622856
 30
0.0
 11
2260.510458392414
 21
1114.621397622856
 31
0.0
  0
LINE
  5
79F
102
{ACAD_REACTORS
330
AE6
102
}
330
1F
100
AcDbEntity
  8
0
100
AcDbLine
 10
2239.010458392414
 20
1135.621397622855
 30
0.0
 11
2239.010458392414
 21
1120.621397622856
 31
0.0
  0
LINE
  5
7A2
102
{ACAD_REACTORS
330
AE6
102
}
330
1F
100
AcDbEntity
  8
0
100
AcDbLine
 10
2230.010458392414
 20
1162.621397622855
 30
0.0
 11
2223.126373485907
 21
1162.621397622855
 31
0.0
  0
LINE
  5
7A3
102
{ACAD_REACTORS
330
AE6
102
}
330
1F
100
AcDbEntity
  8
0
100
AcDbLine
 10
2197.010458392414
 20
1114.621397622855
 30
0.0
 11
2203.894543298921
 21
1114.621397622855
 31
0.0
  0
LINE
  5
7AB
102
{ACAD_REACTORS
330
AE6
102
}
330
1F
100
AcDbEntity
  8
0
100
AcDbLine
 10
2197.010458392414
 20
1114.621397622855
 30
0.0
 11
2210.068415939161
 21
1138.621397622855
 31
0.0
  0
LINE
  5
7AC
102
{ACAD_REACTORS
330
AE6
102
}
330
1F
100
AcDbEntity
  8
0
100
AcDbLine
 10
2203.894543298921
 20
1114.621397622855
 30
0.0
 11
2213.510458392414
 21
1132.295062238293
 31
0.0
  0
LINE
  5
7AE
102
{ACAD_REACTORS
330
AE6
102
}
330
1F
100
AcDbEntity
  8
0
100
AcDbLine
 10
2197.010458392414
 20
1162.621397622855
 30
0.0
 11
2203.894543298921
 21
1162.621397622855
 31
0.0
  0
LINE
  5
7AF
102
{ACAD_REACTORS
330
AE6
102
}
330
1F
100
AcDbEntity
  8
0
100
AcDbLine
 10
2230.010458392413
 20
1114.621397622855
 30
0.0
 11
2223.126373485906
 21
1114.621397622855
 31
0.0
  0
LINE
  5
7B0
102
{ACAD_REACTORS
330
AE6
102
}
330
1F
100
AcDbEntity
  8
0
100
AcDbLine
 10
2230.010458392413
 20
1114.621397622855
 30
0.0
 11
2216.952500845668
 21
1138.621397622855
 31
0.0
  0
LINE
  5
7B1
102
{ACAD_REACTORS
330
AE6
102
}
330
1F
100
AcDbEntity
  8
0
100
AcDbLine
 10
2223.126373485906
 20
1114.621397622855
 30
0.0
 11
2213.510458392414
 21
1132.295062238293
 31
0.0
  0
LINE
  5
7B3
102
{ACAD_REACTORS
330
AE6
102
}
330
1F
100
AcDbEntity
  8
0
100
AcDbLine
 10
2216.952500845668
 20
1138.621397622855
 30
0.0
 11
2230.010458392414
 21
1162.621397622855
 31
0.0
  0
LINE
  5
7B4
102
{ACAD_REACTORS
330
AE6
102
}
330
1F
100
AcDbEntity
  8
0
100
AcDbLine
 10
2210.068415939161
 20
1138.621397622855
 30
0.0
 11
2197.010458392414
 21
1162.621397622855
 31
0.0
  0
LINE
  5
7B5
102
{ACAD_REACTORS
330
AE6
102
}
330
1F
100
AcDbEntity
  8
0
100
AcDbLine
 10
2213.510458392414
 20
1144.947733007416
 30
0.0
 11
2203.894543298921
 21
1162.621397622855
 31
0.0
  0
LINE
  5
7B6
102
{ACAD_REACTORS
330
AE6
102
}
330
1F
100
AcDbEntity
  8
0
100
AcDbLine
 10
2213.510458392413
 20
1144.947733007416
 30
0.0
 11
2223.126373485907
 21
1162.621397622855
 31
0.0
  0
LINE
  5
7B8
102
{ACAD_REACTORS
330
AE6
102
}
330
1F
100
AcDbEntity
  8
0
100
AcDbLine
 10
2194.010458392414
 20
1162.621397622855
 30
0.0
 11
2194.010458392414
 21
1126.621397622855
 31
0.0
  0
LINE
  5
7B9
102
{ACAD_REACTORS
330
AE6
102
}
330
1F
100
AcDbEntity
  8
0
100
AcDbLine
 10
2194.010458392414
 20
1162.621397622855
 30
0.0
 11
2188.010458392414
 21
1162.621397622856
 31
0.0
  0
LINE
  5
7BA
102
{ACAD_REACTORS
330
AE6
102
}
330
1F
100
AcDbEntity
  8
0
100
AcDbLine
 10
2165.010458392414
 20
1162.621397622855
 30
0.0
 11
2165.010458392414
 21
1126.621397622856
 31
0.0
  0
LINE
  5
7BC
102
{ACAD_REACTORS
330
AE6
102
}
330
1F
100
AcDbEntity
  8
0
100
AcDbLine
 10
2171.010458392414
 20
1162.621397622855
 30
0.0
 11
2171.010458392414
 21
1126.621397622856
 31
0.0
  0
LINE
  5
7BD
102
{ACAD_REACTORS
330
AE6
102
}
330
1F
100
AcDbEntity
  8
0
100
AcDbLine
 10
2188.010458392414
 20
1162.621397622855
 30
0.0
 11
2188.010458392414
 21
1126.621397622856
 31
0.0
  0
LINE
  5
7BE
102
{ACAD_REACTORS
330
AE6
102
}
330
1F
100
AcDbEntity
  8
0
100
AcDbLine
 10
2171.010458392414
 20
1162.621397622856
 30
0.0
 11
2165.010458392414
 21
1162.621397622856
 31
0.0
  0
ELLIPSE
  5
7C1
102
{ACAD_REACTORS
330
AE6
102
}
330
1F
100
AcDbEntity
  8
0
100
AcDbEllipse
 10
2179.510458392414
 20
1126.621397622855
 30
0.0
 11
-14.5
 21
0.0000000000002274
 31
0.0
210
0.0
220
0.0
230
1.0
 40
0.8275862068965517
 41
0.0
 42
3.141592653589793
  0
SPLINE
  5
7C3
102
{ACAD_REACTORS
330
AE6
102
}
330
1F
100
AcDbEntity
  8
0
100
AcDbSpline
210
0.0
220
0.0
230
1.0
 70
     8
 71
     3
 72
    32
 73
    28
 74
     0
 42
0.0000000001
 43
0.0000000001
 40
0.0
 40
0.0
 40
0.0
 40
0.0
 40
0.2602715141612674
 40
0.2602715141612674
 40
0.5205430283225349
 40
0.5205430283225349
 40
0.7808145424838023
 40
0.7808145424838023
 40
1.041086056645069
 40
1.041086056645069
 40
1.301357570806337
 40
1.301357570806337
 40
1.561629084967604
 40
1.561629084967604
 40
1.821900599128872
 40
1.821900599128872
 40
2.082172113290139
 40
2.082172113290139
 40
2.342443627451406
 40
2.342443627451406
 40
2.602715141612673
 40
2.602715141612673
 40
2.862986655773941
 40
2.862986655773941
 40
3.123258169935208
 40
3.123258169935208
 40
3.141590291812337
 40
3.141590291812337
 40
3.141590291812337
 40
3.141590291812337
 10
2171.010458392414
 20
1126.621397622856
 30
0.0
 10
2171.010458392414
 20
1126.209301058767
 30
0.0
 10
2171.073625285725
 20
1125.796203044869
 30
0.0
 10
2171.347133335124
 20
1124.94625545858
 30
0.0
 10
2171.559119373019
 20
1124.508778177292
 30
0.0
 10
2172.167285646822
 20
1123.630834945226
 30
0.0
 10
2172.564430467744
 20
1123.191342437448
 30
0.0
 10
2173.549010428079
 20
1122.36901349804
 30
0.0
 10
2174.136310144101
 20
1121.987170289632
 30
0.0
 10
2175.464278801101
 20
1121.343670141537
 30
0.0
 10
2176.204442694185
 20
1121.082497380026
 30
0.0
 10
2177.770512035774
 20
1120.724585952348
 30
0.0
 10
2178.595922423645
 20
1120.628004544479
 30
0.0
 10
2180.250188196706
 20
1120.615453803058
 30
0.0
 10
2181.078584556756
 20
1120.699488727137
 30
0.0
 10
2182.656111170143
 20
1121.034383732475
 30
0.0
 10
2183.404750295958
 20
1121.285101210707
 30
0.0
 10
2184.753633745037
 20
1121.911540940078
 30
0.0
 10
2185.353367188969
 20
1122.286810236979
 30
0.0
 10
2186.364178241019
 20
1123.10064806432
 30
0.0
 10
2186.775070892637
 20
1123.538256371774
 30
0.0
 10
2187.409103891586
 20
1124.415849152356
 30
0.0
 10
2187.633117625926
 20
1124.854812147325
 30
0.0
 10
2187.927913364782
 20
1125.707714046469
 30
0.0
 10
2188.00036118243
 20
1126.122130282212
 30
0.0
 10
2188.01013679412
 20
1126.563334682549
 30
0.0
 10
2188.01046675415
 20
1126.592364702135
 30
0.0
 10
2188.010480251822
 20
1126.621397622855
 30
0.0
  0
LINE
  5
7CC
102
{ACAD_REACTORS
330
AE6
102
}
330
1F
100
AcDbEntity
  8
0
100
AcDbLine
 10
2162.010458392414
 20
1120.621397622856
 30
0.0
 11
2162.010458392414
 21
1114.621397622856
 31
0.0
  0
LINE
  5
7CD
102
{ACAD_REACTORS
330
AE6
102
}
330
1F
100
AcDbEntity
  8
0
100
AcDbLine
 10
2135.510458392413
 20
1162.621397622855
 30
0.0
 11
2135.510458392413
 21
1114.621397622856
 31
0.0
  0
LINE
  5
7CE
102
{ACAD_REACTORS
330
AE6
102
}
330
1F
100
AcDbEntity
  8
0
100
AcDbLine
 10
2162.010458392414
 20
1114.621397622856
 30
0.0
 11
2135.510458392413
 21
1114.621397622856
 31
0.0
  0
LINE
  5
7CF
102
{ACAD_REACTORS
330
AE6
102
}
330
1F
100
AcDbEntity
  8
0
100
AcDbLine
 10
2162.010458392414
 20
1120.621397622856
 30
0.0
 11
2141.510458392413
 21
1120.621397622856
 31
0.0
  0
LINE
  5
7D0
102
{ACAD_REACTORS
330
AE6
102
}
330
1F
100
AcDbEntity
  8
0
100
AcDbLine
 10
2141.510458392414
 20
1162.621397622855
 30
0.0
 11
2141.510458392413
 21
1120.621397622856
 31
0.0
  0
LINE
  5
7D1
102
{ACAD_REACTORS
330
AE6
102
}
330
1F
100
AcDbEntity
  8
0
100
AcDbLine
 10
2141.510458392414
 20
1162.621397622855
 30
0.0
 11
2135.510458392413
 21
1162.621397622855
 31
0.0
  0
DIMENSION
  5
7D2
330
1F
100
AcDbEntity
  8
0
100
AcDbDimension
280
     0
  2
*D5
 10
2801.010458392413
 20
1081.767281348338
 30
0.0
 11
2351.010458392407
 21
1089.373011225555
 31
0.0
 70
    32
  1
<> mm
 71
     5
 42
900.0000000000115
 73
     0
 74
     0
 75
     0
  3
ISO-25
100
AcDbAlignedDimension
 13
1901.010458392401
 23
1114.621397622856
 33
0.0
 14
2801.010458392413
 24
1114.621397622856
 34
0.0
100
AcDbRotatedDimension
  0
LINE
  5
7EB
102
{ACAD_REACTORS
330
AFE
102
}
330
1F
100
AcDbEntity
  8
0
100
AcDbLine
 10
2801.010458392413
 20
1114.621397622856
 30
0.0
 11
2801.010458392413
 21
1127.121397622856
 31
0.0
  0
LINE
  5
7EC
102
{ACAD_REACTORS
330
AFE
102
}
330
1F
100
AcDbEntity
  8
0
100
AcDbLine
 10
2801.010458392413
 20
1150.121397622855
 30
0.0
 11
2801.010458392413
 21
1162.621397622856
 31
0.0
  0
LINE
  5
830
102
{ACAD_REACTORS
330
AE6
102
}
330
1F
100
AcDbEntity
  8
0
100
AcDbLine
 10
2110.510458392413
 20
1156.621397622855
 30
0.0
 11
2110.510458392413
 21
1162.621397622855
 31
0.0
  0
LINE
  5
831
102
{ACAD_REACTORS
330
AE6
102
}
330
1F
100
AcDbEntity
  8
0
100
AcDbLine
 10
2110.510458392413
 20
1162.621397622856
 30
0.0
 11
2079.010458392414
 21
1162.621397622855
 31
0.0
  0
LINE
  5
832
102
{ACAD_REACTORS
330
AE6
102
}
330
1F
100
AcDbEntity
  8
0
100
AcDbLine
 10
2097.760458392414
 20
1114.621397622856
 30
0.0
 11
2091.760458392414
 21
1114.621397622856
 31
0.0
  0
LINE
  5
833
102
{ACAD_REACTORS
330
AE6
102
}
330
1F
100
AcDbEntity
  8
0
100
AcDbLine
 10
2079.010458392413
 20
1156.621397622855
 30
0.0
 11
2079.010458392414
 21
1162.621397622855
 31
0.0
  0
LINE
  5
835
102
{ACAD_REACTORS
330
AE6
102
}
330
1F
100
AcDbEntity
  8
0
100
AcDbLine
 10
2091.760458392414
 20
1114.621397622856
 30
0.0
 11
2091.760458392413
 21
1156.621397622855
 31
0.0
  0
LINE
  5
836
102
{ACAD_REACTORS
330
AE6
102
}
330
1F
100
AcDbEntity
  8
0
100
AcDbLine
 10
2097.760458392414
 20
1114.621397622856
 30
0.0
 11
2097.760458392413
 21
1156.621397622855
 31
0.0
  0
LINE
  5
837
102
{ACAD_REACTORS
330
AE6
102
}
330
1F
100
AcDbEntity
  8
0
100
AcDbLine
 10
2110.510458392413
 20
1156.621397622855
 30
0.0
 11
2097.760458392413
 21
1156.621397622855
 31
0.0
  0
LINE
  5
838
102
{ACAD_REACTORS
330
AE6
102
}
330
1F
100
AcDbEntity
  8
0
100
AcDbLine
 10
2091.760458392414
 20
1156.621397622855
 30
0.0
 11
2079.010458392414
 21
1156.621397622855
 31
0.0
  0
LINE
  5
83B
102
{ACAD_REACTORS
330
AE6
102
}
330
1F
100
AcDbEntity
  8
0
100
AcDbLine
 10
2072.010458392414
 20
1150.621397622856
 30
0.0
 11
2072.010458392414
 21
1126.621397622855
 31
0.0
  0
LINE
  5
83C
102
{ACAD_REACTORS
330
AE6
102
}
330
1F
100
AcDbEntity
  8
0
100
AcDbLine
 10
2066.010458392414
 20
1150.632888391236
 30
0.0
 11
2066.010458392413
 21
1126.621397622856
 31
0.0
  0
LINE
  5
83D
102
{ACAD_REACTORS
330
AE6
102
}
330
1F
100
AcDbEntity
  8
0
100
AcDbLine
 10
2043.010458392414
 20
1150.621397622856
 30
0.0
 11
2043.010458392414
 21
1126.621397622856
 31
0.0
  0
LINE
  5
83F
102
{ACAD_REACTORS
330
AE6
102
}
330
1F
100
AcDbEntity
  8
0
100
AcDbLine
 10
2049.010458392414
 20
1150.621397622858
 30
0.0
 11
2049.010458392414
 21
1126.621397622856
 31
0.0
  0
ELLIPSE
  5
842
102
{ACAD_REACTORS
330
AE6
102
}
330
1F
100
AcDbEntity
  8
0
100
AcDbEllipse
 10
2057.510458392414
 20
1126.621397622855
 30
0.0
 11
-14.5
 21
0.0000000000002274
 31
0.0
210
0.0
220
0.0
230
1.0
 40
0.8275862068965517
 41
0.0
 42
3.141592653589793
  0
SPLINE
  5
843
102
{ACAD_REACTORS
330
AE6
102
}
330
1F
100
AcDbEntity
  8
0
100
AcDbSpline
210
0.0
220
0.0
230
1.0
 70
     8
 71
     3
 72
    32
 73
    28
 74
     0
 42
0.0000000001
 43
0.0000000001
 40
0.0
 40
0.0
 40
0.0
 40
0.0
 40
0.2602715141612674
 40
0.2602715141612674
 40
0.5205430283225349
 40
0.5205430283225349
 40
0.7808145424838023
 40
0.7808145424838023
 40
1.041086056645069
 40
1.041086056645069
 40
1.301357570806337
 40
1.301357570806337
 40
1.561629084967604
 40
1.561629084967604
 40
1.821900599128872
 40
1.821900599128872
 40
2.082172113290139
 40
2.082172113290139
 40
2.342443627451406
 40
2.342443627451406
 40
2.602715141612673
 40
2.602715141612673
 40
2.862986655773941
 40
2.862986655773941
 40
3.123258169935208
 40
3.123258169935208
 40
3.141590291812337
 40
3.141590291812337
 40
3.141590291812337
 40
3.141590291812337
 10
2049.010458392414
 20
1126.621397622856
 30
0.0
 10
2049.010458392414
 20
1126.209301058767
 30
0.0
 10
2049.073625285725
 20
1125.796203044869
 30
0.0
 10
2049.347133335123
 20
1124.94625545858
 30
0.0
 10
2049.559119373019
 20
1124.508778177292
 30
0.0
 10
2050.167285646821
 20
1123.630834945226
 30
0.0
 10
2050.564430467744
 20
1123.191342437448
 30
0.0
 10
2051.549010428078
 20
1122.36901349804
 30
0.0
 10
2052.136310144101
 20
1121.987170289632
 30
0.0
 10
2053.464278801101
 20
1121.343670141537
 30
0.0
 10
2054.204442694184
 20
1121.082497380026
 30
0.0
 10
2055.770512035774
 20
1120.724585952348
 30
0.0
 10
2056.595922423644
 20
1120.628004544479
 30
0.0
 10
2058.250188196705
 20
1120.615453803058
 30
0.0
 10
2059.078584556755
 20
1120.699488727137
 30
0.0
 10
2060.656111170143
 20
1121.034383732475
 30
0.0
 10
2061.404750295958
 20
1121.285101210707
 30
0.0
 10
2062.753633745037
 20
1121.911540940078
 30
0.0
 10
2063.353367188969
 20
1122.286810236979
 30
0.0
 10
2064.364178241018
 20
1123.10064806432
 30
0.0
 10
2064.775070892637
 20
1123.538256371774
 30
0.0
 10
2065.409103891586
 20
1124.415849152356
 30
0.0
 10
2065.633117625925
 20
1124.854812147325
 30
0.0
 10
2065.927913364781
 20
1125.707714046469
 30
0.0
 10
2066.00036118243
 20
1126.122130282212
 30
0.0
 10
2066.01013679412
 20
1126.563334682549
 30
0.0
 10
2066.01046675415
 20
1126.592364702135
 30
0.0
 10
2066.010480251821
 20
1126.621397622855
 30
0.0
  0
ELLIPSE
  5
849
102
{ACAD_REACTORS
330
AE6
102
}
330
1F
100
AcDbEntity
  8
0
100
AcDbEllipse
 10
2057.510458392414
 20
1150.621397622856
 30
0.0
 11
-14.5
 21
-0.0000000000002274
 31
0.0
210
0.0
220
0.0
230
-1.0
 40
0.8275862068965517
 41
0.0
 42
3.141592653589793
  0
SPLINE
  5
84A
102
{ACAD_REACTORS
330
AE6
102
}
330
1F
100
AcDbEntity
  8
0
100
AcDbSpline
210
0.0
220
0.0
230
1.0
 70
     8
 71
     3
 72
    32
 73
    28
 74
     0
 42
0.0000000001
 43
0.0000000001
 40
0.0
 40
0.0
 40
0.0
 40
0.0
 40
0.2602715141612674
 40
0.2602715141612674
 40
0.5205430283225349
 40
0.5205430283225349
 40
0.7808145424838023
 40
0.7808145424838023
 40
1.041086056645069
 40
1.041086056645069
 40
1.301357570806337
 40
1.301357570806337
 40
1.561629084967604
 40
1.561629084967604
 40
1.821900599128872
 40
1.821900599128872
 40
2.082172113290139
 40
2.082172113290139
 40
2.342443627451406
 40
2.342443627451406
 40
2.602715141612673
 40
2.602715141612673
 40
2.862986655773941
 40
2.862986655773941
 40
3.123258169935208
 40
3.123258169935208
 40
3.141590291812337
 40
3.141590291812337
 40
3.141590291812337
 40
3.141590291812337
 10
2049.010458392414
 20
1150.621397622855
 30
0.0
 10
2049.010458392414
 20
1151.033494186944
 30
0.0
 10
2049.073625285725
 20
1151.446592200842
 30
0.0
 10
2049.347133335123
 20
1152.296539787131
 30
0.0
 10
2049.559119373019
 20
1152.734017068419
 30
0.0
 10
2050.167285646821
 20
1153.611960300485
 30
0.0
 10
2050.564430467744
 20
1154.051452808263
 30
0.0
 10
2051.549010428078
 20
1154.873781747671
 30
0.0
 10
2052.136310144101
 20
1155.25562495608
 30
0.0
 10
2053.464278801101
 20
1155.899125104174
 30
0.0
 10
2054.204442694184
 20
1156.160297865685
 30
0.0
 10
2055.770512035774
 20
1156.518209293364
 30
0.0
 10
2056.595922423644
 20
1156.614790701232
 30
0.0
 10
2058.250188196705
 20
1156.627341442653
 30
0.0
 10
2059.078584556755
 20
1156.543306518574
 30
0.0
 10
2060.656111170143
 20
1156.208411513236
 30
0.0
 10
2061.404750295958
 20
1155.957694035004
 30
0.0
 10
2062.753633745037
 20
1155.331254305633
 30
0.0
 10
2063.353367188969
 20
1154.955985008732
 30
0.0
 10
2064.364178241018
 20
1154.142147181391
 30
0.0
 10
2064.775070892637
 20
1153.704538873937
 30
0.0
 10
2065.409103891586
 20
1152.826946093355
 30
0.0
 10
2065.633117625925
 20
1152.387983098386
 30
0.0
 10
2065.927913364781
 20
1151.535081199242
 30
0.0
 10
2066.00036118243
 20
1151.120664963499
 30
0.0
 10
2066.01013679412
 20
1150.679460563162
 30
0.0
 10
2066.01046675415
 20
1150.650430543576
 30
0.0
 10
2066.010480251821
 20
1150.621397622856
 30
0.0
  0
LINE
  5
855
102
{ACAD_REACTORS
330
AE6
102
}
330
1F
100
AcDbEntity
  8
0
100
AcDbLine
 10
2040.010458392409
 20
1150.621397622856
 30
0.0
 11
2040.010458392409
 21
1126.621397622855
 31
0.0
  0
LINE
  5
856
102
{ACAD_REACTORS
330
AE6
102
}
330
1F
100
AcDbEntity
  8
0
100
AcDbLine
 10
2034.010458392408
 20
1150.632888391236
 30
0.0
 11
2034.010458392408
 21
1126.621397622856
 31
0.0
  0
LINE
  5
857
102
{ACAD_REACTORS
330
AE6
102
}
330
1F
100
AcDbEntity
  8
0
100
AcDbLine
 10
2011.010458392409
 20
1150.621397622856
 30
0.0
 11
2011.010458392409
 21
1126.621397622856
 31
0.0
  0
LINE
  5
858
102
{ACAD_REACTORS
330
AE6
102
}
330
1F
100
AcDbEntity
  8
0
100
AcDbLine
 10
2017.010458392409
 20
1150.621397622858
 30
0.0
 11
2017.010458392409
 21
1126.621397622856
 31
0.0
  0
ELLIPSE
  5
859
102
{ACAD_REACTORS
330
AE6
102
}
330
1F
100
AcDbEntity
  8
0
100
AcDbEllipse
 10
2025.510458392409
 20
1126.621397622855
 30
0.0
 11
-14.5
 21
0.0000000000002274
 31
0.0
210
0.0
220
0.0
230
1.0
 40
0.8275862068965517
 41
0.0
 42
3.141592653589793
  0
SPLINE
  5
85A
102
{ACAD_REACTORS
330
AE6
102
}
330
1F
100
AcDbEntity
  8
0
100
AcDbSpline
210
0.0
220
0.0
230
1.0
 70
     8
 71
     3
 72
    32
 73
    28
 74
     0
 42
0.0000000001
 43
0.0000000001
 40
0.0
 40
0.0
 40
0.0
 40
0.0
 40
0.2602715141612674
 40
0.2602715141612674
 40
0.5205430283225349
 40
0.5205430283225349
 40
0.7808145424838023
 40
0.7808145424838023
 40
1.041086056645069
 40
1.041086056645069
 40
1.301357570806337
 40
1.301357570806337
 40
1.561629084967604
 40
1.561629084967604
 40
1.821900599128872
 40
1.821900599128872
 40
2.082172113290139
 40
2.082172113290139
 40
2.342443627451406
 40
2.342443627451406
 40
2.602715141612673
 40
2.602715141612673
 40
2.862986655773941
 40
2.862986655773941
 40
3.123258169935208
 40
3.123258169935208
 40
3.141590291812337
 40
3.141590291812337
 40
3.141590291812337
 40
3.141590291812337
 10
2017.010458392409
 20
1126.621397622856
 30
0.0
 10
2017.010458392409
 20
1126.209301058767
 30
0.0
 10
2017.073625285719
 20
1125.796203044869
 30
0.0
 10
2017.347133335119
 20
1124.94625545858
 30
0.0
 10
2017.559119373014
 20
1124.508778177292
 30
0.0
 10
2018.167285646816
 20
1123.630834945226
 30
0.0
 10
2018.564430467739
 20
1123.191342437448
 30
0.0
 10
2019.549010428073
 20
1122.36901349804
 30
0.0
 10
2020.136310144096
 20
1121.987170289632
 30
0.0
 10
2021.464278801096
 20
1121.343670141537
 30
0.0
 10
2022.204442694179
 20
1121.082497380026
 30
0.0
 10
2023.770512035769
 20
1120.724585952348
 30
0.0
 10
2024.595922423639
 20
1120.628004544479
 30
0.0
 10
2026.2501881967
 20
1120.615453803058
 30
0.0
 10
2027.07858455675
 20
1120.699488727137
 30
0.0
 10
2028.656111170138
 20
1121.034383732475
 30
0.0
 10
2029.404750295952
 20
1121.285101210707
 30
0.0
 10
2030.753633745032
 20
1121.911540940078
 30
0.0
 10
2031.353367188964
 20
1122.286810236979
 30
0.0
 10
2032.364178241013
 20
1123.10064806432
 30
0.0
 10
2032.775070892632
 20
1123.538256371774
 30
0.0
 10
2033.40910389158
 20
1124.415849152356
 30
0.0
 10
2033.633117625921
 20
1124.854812147325
 30
0.0
 10
2033.927913364776
 20
1125.707714046469
 30
0.0
 10
2034.000361182425
 20
1126.122130282212
 30
0.0
 10
2034.010136794115
 20
1126.563334682549
 30
0.0
 10
2034.010466754145
 20
1126.592364702135
 30
0.0
 10
2034.010480251816
 20
1126.621397622855
 30
0.0
  0
ELLIPSE
  5
85B
102
{ACAD_REACTORS
330
AE6
102
}
330
1F
100
AcDbEntity
  8
0
100
AcDbEllipse
 10
2025.510458392409
 20
1150.621397622856
 30
0.0
 11
-14.5
 21
-0.0000000000002274
 31
0.0
210
0.0
220
0.0
230
-1.0
 40
0.8275862068965517
 41
0.0
 42
3.141592653589793
  0
SPLINE
  5
85C
102
{ACAD_REACTORS
330
AE6
102
}
330
1F
100
AcDbEntity
  8
0
100
AcDbSpline
210
0.0
220
0.0
230
1.0
 70
     8
 71
     3
 72
    32
 73
    28
 74
     0
 42
0.0000000001
 43
0.0000000001
 40
0.0
 40
0.0
 40
0.0
 40
0.0
 40
0.2602715141612674
 40
0.2602715141612674
 40
0.5205430283225349
 40
0.5205430283225349
 40
0.7808145424838023
 40
0.7808145424838023
 40
1.041086056645069
 40
1.041086056645069
 40
1.301357570806337
 40
1.301357570806337
 40
1.561629084967604
 40
1.561629084967604
 40
1.821900599128872
 40
1.821900599128872
 40
2.082172113290139
 40
2.082172113290139
 40
2.342443627451406
 40
2.342443627451406
 40
2.602715141612673
 40
2.602715141612673
 40
2.862986655773941
 40
2.862986655773941
 40
3.123258169935208
 40
3.123258169935208
 40
3.141590291812337
 40
3.141590291812337
 40
3.141590291812337
 40
3.141590291812337
 10
2017.010458392409
 20
1150.621397622855
 30
0.0
 10
2017.010458392409
 20
1151.033494186944
 30
0.0
 10
2017.073625285719
 20
1151.446592200842
 30
0.0
 10
2017.347133335119
 20
1152.296539787131
 30
0.0
 10
2017.559119373014
 20
1152.734017068419
 30
0.0
 10
2018.167285646816
 20
1153.611960300485
 30
0.0
 10
2018.564430467739
 20
1154.051452808263
 30
0.0
 10
2019.549010428073
 20
1154.873781747671
 30
0.0
 10
2020.136310144096
 20
1155.25562495608
 30
0.0
 10
2021.464278801096
 20
1155.899125104174
 30
0.0
 10
2022.204442694179
 20
1156.160297865685
 30
0.0
 10
2023.770512035769
 20
1156.518209293364
 30
0.0
 10
2024.595922423639
 20
1156.614790701232
 30
0.0
 10
2026.2501881967
 20
1156.627341442653
 30
0.0
 10
2027.07858455675
 20
1156.543306518574
 30
0.0
 10
2028.656111170138
 20
1156.208411513236
 30
0.0
 10
2029.404750295952
 20
1155.957694035004
 30
0.0
 10
2030.753633745032
 20
1155.331254305633
 30
0.0
 10
2031.353367188964
 20
1154.955985008732
 30
0.0
 10
2032.364178241013
 20
1154.142147181391
 30
0.0
 10
2032.775070892632
 20
1153.704538873937
 30
0.0
 10
2033.40910389158
 20
1152.826946093355
 30
0.0
 10
2033.633117625921
 20
1152.387983098386
 30
0.0
 10
2033.927913364776
 20
1151.535081199242
 30
0.0
 10
2034.000361182425
 20
1151.120664963499
 30
0.0
 10
2034.010136794115
 20
1150.679460563162
 30
0.0
 10
2034.010466754145
 20
1150.650430543576
 30
0.0
 10
2034.010480251816
 20
1150.621397622856
 30
0.0
  0
LINE
  5
85D
102
{ACAD_REACTORS
330
AE6
102
}
330
1F
100
AcDbEntity
  8
0
100
AcDbLine
 10
2008.010458392401
 20
1129.621673366737
 30
0.0
 11
2008.010458392401
 21
1126.621397622855
 31
0.0
  0
ELLIPSE
  5
85E
102
{ACAD_REACTORS
330
AE6
102
}
330
1F
100
AcDbEntity
  8
0
100
AcDbEllipse
 10
1993.510458392401
 20
1126.621397622855
 30
0.0
 11
-14.5
 21
0.0000000000002274
 31
0.0
210
0.0
220
0.0
230
1.0
 40
0.8275862068965517
 41
0.0
 42
3.141592653589793
  0
SPLINE
  5
85F
102
{ACAD_REACTORS
330
AE6
102
}
330
1F
100
AcDbEntity
  8
0
100
AcDbSpline
210
0.0
220
0.0
230
1.0
 70
     8
 71
     3
 72
    32
 73
    28
 74
     0
 42
0.0000000001
 43
0.0000000001
 40
0.0
 40
0.0
 40
0.0
 40
0.0
 40
0.2602715141612674
 40
0.2602715141612674
 40
0.5205430283225349
 40
0.5205430283225349
 40
0.7808145424838023
 40
0.7808145424838023
 40
1.041086056645069
 40
1.041086056645069
 40
1.301357570806337
 40
1.301357570806337
 40
1.561629084967604
 40
1.561629084967604
 40
1.821900599128872
 40
1.821900599128872
 40
2.082172113290139
 40
2.082172113290139
 40
2.342443627451406
 40
2.342443627451406
 40
2.602715141612673
 40
2.602715141612673
 40
2.862986655773941
 40
2.862986655773941
 40
3.123258169935208
 40
3.123258169935208
 40
3.141590291812337
 40
3.141590291812337
 40
3.141590291812337
 40
3.141590291812337
 10
1985.010458392401
 20
1126.621397622856
 30
0.0
 10
1985.010458392401
 20
1126.209301058767
 30
0.0
 10
1985.073625285712
 20
1125.796203044869
 30
0.0
 10
1985.347133335111
 20
1124.94625545858
 30
0.0
 10
1985.559119373006
 20
1124.508778177292
 30
0.0
 10
1986.167285646809
 20
1123.630834945226
 30
0.0
 10
1986.564430467731
 20
1123.191342437448
 30
0.0
 10
1987.549010428066
 20
1122.36901349804
 30
0.0
 10
1988.136310144089
 20
1121.987170289632
 30
0.0
 10
1989.464278801088
 20
1121.343670141537
 30
0.0
 10
1990.204442694172
 20
1121.082497380026
 30
0.0
 10
1991.770512035762
 20
1120.724585952348
 30
0.0
 10
1992.595922423632
 20
1120.628004544479
 30
0.0
 10
1994.250188196693
 20
1120.615453803058
 30
0.0
 10
1995.078584556743
 20
1120.699488727137
 30
0.0
 10
1996.65611117013
 20
1121.034383732475
 30
0.0
 10
1997.404750295945
 20
1121.285101210707
 30
0.0
 10
1998.753633745025
 20
1121.911540940078
 30
0.0
 10
1999.353367188957
 20
1122.286810236979
 30
0.0
 10
2000.364178241006
 20
1123.10064806432
 30
0.0
 10
2000.775070892625
 20
1123.538256371774
 30
0.0
 10
2001.409103891573
 20
1124.415849152356
 30
0.0
 10
2001.633117625913
 20
1124.854812147325
 30
0.0
 10
2001.927913364769
 20
1125.707714046469
 30
0.0
 10
2002.000361182418
 20
1126.122130282212
 30
0.0
 10
2002.010136794107
 20
1126.563334682549
 30
0.0
 10
2002.010466754138
 20
1126.592364702135
 30
0.0
 10
2002.010480251809
 20
1126.621397622855
 30
0.0
  0
ELLIPSE
  5
860
102
{ACAD_REACTORS
330
AE6
102
}
330
1F
100
AcDbEntity
  8
0
100
AcDbEllipse
 10
1993.510458392401
 20
1129.621673366737
 30
0.0
 11
-14.5
 21
-0.0000000000002274
 31
0.0
210
0.0
220
0.0
230
-1.0
 40
0.8275862068965517
 41
2.293565314388613
 42
3.141592653589793
  0
SPLINE
  5
861
102
{ACAD_REACTORS
330
AE6
102
}
330
1F
100
AcDbEntity
  8
0
100
AcDbSpline
210
0.0
220
0.0
230
1.0
 70
     8
 71
     3
 72
    20
 73
    16
 74
     0
 42
0.0000000001
 43
0.0000000001
 40
1.56243667843499
 40
1.56243667843499
 40
1.56243667843499
 40
1.56243667843499
 40
1.821900599128872
 40
1.821900599128872
 40
2.082172113290139
 40
2.082172113290139
 40
2.342443627451406
 40
2.342443627451406
 40
2.602715141612673
 40
2.602715141612673
 40
2.862986655773941
 40
2.862986655773941
 40
3.123258169935208
 40
3.123258169935208
 40
3.141590291812337
 40
3.141590291812337
 40
3.141590291812337
 40
3.141590291812337
 10
1993.430754848601
 20
1135.621397622855
 30
0.0
 10
1994.255328658055
 20
1135.62709488146
 30
0.0
 10
1995.081032001274
 20
1135.543062691538
 30
0.0
 10
1996.65611117013
 20
1135.208687257117
 30
0.0
 10
1997.404750295945
 20
1134.957969778885
 30
0.0
 10
1998.753633745025
 20
1134.331530049514
 30
0.0
 10
1999.353367188957
 20
1133.956260752613
 30
0.0
 10
2000.364178241006
 20
1133.142422925273
 30
0.0
 10
2000.775070892625
 20
1132.704814617818
 30
0.0
 10
2001.409103891573
 20
1131.827221837237
 30
0.0
 10
2001.633117625913
 20
1131.388258842267
 30
0.0
 10
2001.927913364769
 20
1130.535356943124
 30
0.0
 10
2002.000361182418
 20
1130.120940707381
 30
0.0
 10
2002.010136794107
 20
1129.679736307044
 30
0.0
 10
2002.010466754138
 20
1129.650706287457
 30
0.0
 10
2002.010480251809
 20
1129.621673366737
 30
0.0
  0
LINE
  5
866
102
{ACAD_REACTORS
330
AE6
102
}
330
1F
100
AcDbEntity
  8
0
100
AcDbLine
 10
2002.010480251809
 20
1126.621397622855
 30
0.0
 11
2002.010480251809
 21
1129.621673366737
 31
0.0
  0
LINE
  5
869
102
{ACAD_REACTORS
330
AE6
102
}
330
1F
100
AcDbEntity
  8
0
100
AcDbLine
 10
1985.010458392401
 20
1128.121397622855
 30
0.0
 11
1979.010458392401
 21
1128.121397622855
 31
0.0
  0
LINE
  5
86A
102
{ACAD_REACTORS
330
AE6
102
}
330
1F
100
AcDbEntity
  8
0
100
AcDbLine
 10
1985.010458392401
 20
1126.621397622856
 30
0.0
 11
1985.010458392401
 21
1128.121397622855
 31
0.0
  0
LINE
  5
86B
102
{ACAD_REACTORS
330
AE6
102
}
330
1F
100
AcDbEntity
  8
0
100
AcDbLine
 10
1979.010458392401
 20
1126.621397622856
 30
0.0
 11
1979.010458392401
 21
1128.121397622856
 31
0.0
  0
ELLIPSE
  5
86C
102
{ACAD_REACTORS
330
AE6
102
}
330
1F
100
AcDbEntity
  8
0
100
AcDbEllipse
 10
1993.510458392401
 20
1147.621121878974
 30
0.0
 11
-14.5
 21
0.0000000000002274
 31
0.0
210
0.0
220
0.0
230
1.0
 40
0.8275862068965517
 41
2.293565314387873
 42
3.141592653589793
  0
SPLINE
  5
86D
102
{ACAD_REACTORS
330
AE6
102
}
330
1F
100
AcDbEntity
  8
0
100
AcDbSpline
210
0.0
220
0.0
230
1.0
 70
     8
 71
     3
 72
    20
 73
    16
 74
     0
 42
0.0000000001
 43
0.0000000001
 40
1.56243667843499
 40
1.56243667843499
 40
1.56243667843499
 40
1.56243667843499
 40
1.821900599128872
 40
1.821900599128872
 40
2.082172113290139
 40
2.082172113290139
 40
2.342443627451406
 40
2.342443627451406
 40
2.602715141612673
 40
2.602715141612673
 40
2.862986655773941
 40
2.862986655773941
 40
3.123258169935208
 40
3.123258169935208
 40
3.141590291812337
 40
3.141590291812337
 40
3.141590291812337
 40
3.141590291812337
 10
1993.430754848601
 20
1141.621397622856
 30
0.0
 10
1994.255328658055
 20
1141.615700364251
 30
0.0
 10
1995.081032001274
 20
1141.699732554173
 30
0.0
 10
1996.65611117013
 20
1142.034107988594
 30
0.0
 10
1997.404750295945
 20
1142.284825466826
 30
0.0
 10
1998.753633745025
 20
1142.911265196197
 30
0.0
 10
1999.353367188957
 20
1143.286534493098
 30
0.0
 10
2000.364178241006
 20
1144.100372320438
 30
0.0
 10
2000.775070892625
 20
1144.537980627893
 30
0.0
 10
2001.409103891573
 20
1145.415573408474
 30
0.0
 10
2001.633117625913
 20
1145.854536403444
 30
0.0
 10
2001.927913364769
 20
1146.707438302587
 30
0.0
 10
2002.000361182418
 20
1147.121854538331
 30
0.0
 10
2002.010136794107
 20
1147.563058938668
 30
0.0
 10
2002.010466754138
 20
1147.592088958254
 30
0.0
 10
2002.010480251809
 20
1147.621121878974
 30
0.0
  0
LINE
  5
86E
102
{ACAD_REACTORS
330
AE6
102
}
330
1F
100
AcDbEntity
  8
0
100
AcDbLine
 10
1988.010458392401
 20
1149.121397622856
 30
0.0
 11
1982.010458392401
 21
1149.121397622856
 31
0.0
  0
LINE
  5
871
102
{ACAD_REACTORS
330
AE6
102
}
330
1F
100
AcDbEntity
  8
0
100
AcDbLine
 10
1988.010458392401
 20
1150.621397622855
 30
0.0
 11
1988.010458392401
 21
1149.121397622856
 31
0.0
  0
LINE
  5
872
102
{ACAD_REACTORS
330
AE6
102
}
330
1F
100
AcDbEntity
  8
0
100
AcDbLine
 10
1982.010458392401
 20
1150.621397622856
 30
0.0
 11
1982.010458392401
 21
1149.121397622855
 31
0.0
  0
LINE
  5
875
102
{ACAD_REACTORS
330
AE6
102
}
330
1F
100
AcDbEntity
  8
0
100
AcDbLine
 10
2002.010480251809
 20
1147.621121878974
 30
0.0
 11
2002.010480251809
 21
1150.621397622856
 31
0.0
  0
LINE
  5
876
102
{ACAD_REACTORS
330
AE6
102
}
330
1F
100
AcDbEntity
  8
0
100
AcDbLine
 10
2008.010458392401
 20
1147.621121878974
 30
0.0
 11
2008.010458392401
 21
1150.621397622856
 31
0.0
  0
ELLIPSE
  5
87B
102
{ACAD_REACTORS
330
AE6
102
}
330
1F
100
AcDbEntity
  8
0
100
AcDbEllipse
 10
1995.010469322105
 20
1150.621397622856
 30
0.0
 11
-7.000010929703648
 21
-0.0000000000004547
 31
0.0
210
0.0
220
0.0
230
1.0
 40
0.8571409087909856
 41
3.141592653589793
 42
6.283185307179586
  0
SPLINE
  5
87C
102
{ACAD_REACTORS
330
AE6
102
}
330
1F
100
AcDbEntity
  8
0
100
AcDbSpline
210
0.0
220
0.0
230
1.0
 70
     8
 71
     3
 72
    26
 73
    22
 74
     0
 42
0.0000000001
 43
0.0000000001
 40
3.141596360433095
 40
3.141596360433095
 40
3.141596360433095
 40
3.141596360433095
 40
3.414504314507823
 40
3.414504314507823
 40
3.724207389840668
 40
3.724207389840668
 40
4.033910465173514
 40
4.033910465173514
 40
4.34361354050636
 40
4.34361354050636
 40
4.653316615839205
 40
4.653316615839205
 40
5.111440602752013
 40
5.111440602752013
 40
5.46944197766617
 40
5.46944197766617
 40
5.827443352580326
 40
5.827443352580326
 40
6.096596012142886
 40
6.096596012142886
 40
6.283185307179586
 40
6.283185307179586
 40
6.283185307179586
 40
6.283185307179586
 10
2008.01031785676
 20
1150.621397622855
 30
0.0
 10
2008.009620934764
 20
1151.80378458649
 30
0.0
 10
2007.819270706396
 20
1152.985631516501
 30
0.0
 10
2007.041656856103
 20
1155.366966669843
 30
0.0
 10
2006.40718049218
 20
1156.545743598996
 30
0.0
 10
2004.817931228092
 20
1158.613107099475
 30
0.0
 10
2003.864934651395
 20
1159.502999455494
 30
0.0
 10
2001.764219648823
 20
1160.954556667681
 30
0.0
 10
2000.616494391543
 20
1161.517481662166
 30
0.0
 10
1998.224411920939
 20
1162.309850446322
 30
0.0
 10
1996.979609387445
 20
1162.539761132966
 30
0.0
 10
1993.875334366064
 20
1162.697124030489
 30
0.0
 10
1992.005543705176
 20
1162.426805762198
 30
0.0
 10
1988.88020657495
 20
1161.297197829376
 30
0.0
 10
1987.57912238304
 20
1160.578474708301
 30
0.0
 10
1985.274483447398
 20
1158.71200209693
 30
0.0
 10
1984.271624510672
 20
1157.561317173884
 30
0.0
 10
1982.948615754277
 20
1155.247760966743
 30
0.0
 10
1982.522330988592
 20
1154.159772885286
 30
0.0
 10
1982.099137255443
 20
1152.23834845163
 30
0.0
 10
1982.010458392401
 20
1151.429951958735
 30
0.0
 10
1982.010458392401
 20
1150.621397622855
 30
0.0
  0
LINE
  5
87E
102
{ACAD_REACTORS
330
AFE
102
}
330
1F
100
AcDbEntity
  8
0
100
AcDbLine
 10
1966.010458392401
 20
1114.621397622855
 30
0.0
 11
1966.010458392401
 21
1127.121397622855
 31
0.0
  0
LINE
  5
880
102
{ACAD_REACTORS
330
AFE
102
}
330
1F
100
AcDbEntity
  8
0
100
AcDbLine
 10
1901.010458392401
 20
1114.621397622856
 30
0.0
 11
1966.010458392401
 21
1114.621397622856
 31
0.0
  0
LINE
  5
881
102
{ACAD_REACTORS
330
AFE
102
}
330
1F
100
AcDbEntity
  8
0
100
AcDbLine
 10
1901.010458392401
 20
1127.121397622856
 30
0.0
 11
1966.010458392401
 21
1127.121397622856
 31
0.0
  0
LINE
  5
882
102
{ACAD_REACTORS
330
AFE
102
}
330
1F
100
AcDbEntity
  8
0
100
AcDbLine
 10
1901.010458392401
 20
1162.621397622856
 30
0.0
 11
1966.010458392401
 21
1162.621397622856
 31
0.0
  0
LINE
  5
883
102
{ACAD_REACTORS
330
AFE
102
}
330
1F
100
AcDbEntity
  8
0
100
AcDbLine
 10
1901.010458392401
 20
1150.121397622855
 30
0.0
 11
1966.010458392401
 21
1150.121397622855
 31
0.0
  0
LINE
  5
884
102
{ACAD_REACTORS
330
AFE
102
}
330
1F
100
AcDbEntity
  8
0
100
AcDbLine
 10
1901.010458392401
 20
1162.621397622856
 30
0.0
 11
1901.010458392401
 21
1150.121397622855
 31
0.0
  0
LINE
  5
885
102
{ACAD_REACTORS
330
AFE
102
}
330
1F
100
AcDbEntity
  8
0
100
AcDbLine
 10
1901.010458392401
 20
1127.121397622856
 30
0.0
 11
1901.010458392401
 21
1114.621397622856
 31
0.0
  0
LINE
  5
886
102
{ACAD_REACTORS
330
AFE
102
}
330
1F
100
AcDbEntity
  8
0
100
AcDbLine
 10
1966.010458392401
 20
1150.121397622855
 30
0.0
 11
1966.010458392401
 21
1162.621397622856
 31
0.0
  0
LINE
  5
889
102
{ACAD_REACTORS
330
AE6
102
}
330
1F
100
AcDbEntity
  8
0
100
AcDbLine
 10
1992.436038395465
 20
1141.621397622856
 30
0.0
 11
1992.436038395465
 21
1135.621397622855
 31
0.0
  0
LINE
  5
A04
102
{ACAD_REACTORS
330
AE6
102
}
330
1F
100
AcDbEntity
  8
0
100
AcDbLine
 10
1993.430754848601
 20
1135.621397622855
 30
0.0
 11
1992.436038395465
 21
1135.621397622855
 31
0.0
  0
LINE
  5
A05
102
{ACAD_REACTORS
330
AE6
102
}
330
1F
100
AcDbEntity
  8
0
100
AcDbLine
 10
1993.430754848601
 20
1141.621397622856
 30
0.0
 11
1992.436038395465
 21
1141.621397622856
 31
0.0
  0
HATCH
  5
AE6
330
1F
100
AcDbEntity
  8
0
100
AcDbHatch
 10
0.0
 20
0.0
 30
0.0
210
0.0
220
0.0
230
1.0
  2
SOLID
 70
     1
 71
     1
 91
       10
 92
        5
 93
        4
 72
     3
 10
2025.510458392409
 20
1150.621397622856
 11
-14.5
 21
-0.0000000000002274
 40
0.8275862068965517
 50
180.0
 51
360.0
 73
     1
 72
     1
 10
2011.010458392409
 20
1150.621397622856
 11
2011.010458392409
 21
1126.621397622859
 72
     3
 10
2025.510458392409
 20
1126.621397622855
 11
-14.5
 21
0.0000000000002274
 40
0.8275862068965517
 50
0.0
 51
180.0
 73
     1
 72
     1
 10
2040.010458392409
 20
1126.621397622855
 11
2040.010458392409
 21
1150.621397622856
 97
        4
330
85B
330
857
330
859
330
855
 92
       20
 93
        4
 72
     4
 94
        3
 73
     0
 74
     0
 95
       32
 96
       28
 40
0.0
 40
0.0
 40
0.0
 40
0.0
 40
0.2602715141612674
 40
0.2602715141612674
 40
0.5205430283225349
 40
0.5205430283225349
 40
0.7808145424838023
 40
0.7808145424838023
 40
1.041086056645069
 40
1.041086056645069
 40
1.301357570806337
 40
1.301357570806337
 40
1.561629084967604
 40
1.561629084967604
 40
1.821900599128872
 40
1.821900599128872
 40
2.082172113290139
 40
2.082172113290139
 40
2.342443627451406
 40
2.342443627451406
 40
2.602715141612673
 40
2.602715141612673
 40
2.862986655773941
 40
2.862986655773941
 40
3.123258169935208
 40
3.123258169935208
 40
3.139171741138066
 40
3.139171741138066
 40
3.139171741138066
 40
3.139171741138066
 10
2017.010458392409
 20
1150.621397622855
 10
2017.010458392409
 20
1151.033494186944
 10
2017.073625285719
 20
1151.446592200842
 10
2017.347133335119
 20
1152.296539787131
 10
2017.559119373014
 20
1152.734017068419
 10
2018.167285646816
 20
1153.611960300485
 10
2018.564430467739
 20
1154.051452808263
 10
2019.549010428073
 20
1154.873781747671
 10
2020.136310144096
 20
1155.25562495608
 10
2021.464278801096
 20
1155.899125104174
 10
2022.204442694179
 20
1156.160297865685
 10
2023.770512035769
 20
1156.518209293364
 10
2024.595922423639
 20
1156.614790701232
 10
2026.2501881967
 20
1156.627341442653
 10
2027.07858455675
 20
1156.543306518574
 10
2028.656111170138
 20
1156.208411513236
 10
2029.404750295952
 20
1155.957694035004
 10
2030.753633745032
 20
1155.331254305633
 10
2031.353367188964
 20
1154.955985008732
 10
2032.364178241013
 20
1154.142147181391
 10
2032.775070892632
 20
1153.704538873937
 10
2033.40910389158
 20
1152.826946093355
 10
2033.633117625921
 20
1152.387983098386
 10
2033.927913364776
 20
1151.535081199242
 10
2034.000361182425
 20
1151.120664963499
 10
2034.010051932293
 20
1150.6832906467
 10
2034.01037423842
 20
1150.658090406499
 10
2034.010458392409
 20
1150.632888391266
 97
        0
 72
     1
 10
2034.010458392408
 20
1150.632888391274
 11
2034.010458392408
 21
1126.621015862232
 72
     4
 94
        3
 73
     0
 74
     0
 95
       32
 96
       28
 40
0.0
 40
0.0
 40
0.0
 40
0.0
 40
0.0183321218771289
 40
0.0183321218771289
 40
0.2786036360383961
 40
0.2786036360383961
 40
0.5388751501996634
 40
0.5388751501996634
 40
0.7991466643609307
 40
0.7991466643609307
 40
1.059418178522197
 40
1.059418178522197
 40
1.319689692683465
 40
1.319689692683465
 40
1.579961206844732
 40
1.579961206844732
 40
1.840232721006
 40
1.840232721006
 40
2.100504235167267
 40
2.100504235167267
 40
2.360775749328535
 40
2.360775749328535
 40
2.621047263489802
 40
2.621047263489802
 40
2.88131877765107
 40
2.88131877765107
 40
3.141590291812337
 40
3.141590291812337
 40
3.141590291812337
 40
3.141590291812337
 10
2034.010480251816
 20
1126.621397622855
 10
2034.010466754145
 20
1126.592364702135
 10
2034.010136794115
 20
1126.563334682549
 10
2034.000361182425
 20
1126.122130282212
 10
2033.927913364776
 20
1125.707714046469
 10
2033.633117625921
 20
1124.854812147325
 10
2033.40910389158
 20
1124.415849152356
 10
2032.775070892632
 20
1123.538256371774
 10
2032.364178241013
 20
1123.10064806432
 10
2031.353367188964
 20
1122.286810236979
 10
2030.753633745032
 20
1121.911540940078
 10
2029.404750295952
 20
1121.285101210707
 10
2028.656111170138
 20
1121.034383732475
 10
2027.07858455675
 20
1120.699488727137
 10
2026.2501881967
 20
1120.615453803058
 10
2024.595922423639
 20
1120.628004544479
 10
2023.770512035769
 20
1120.724585952348
 10
2022.204442694179
 20
1121.082497380026
 10
2021.464278801096
 20
1121.343670141537
 10
2020.136310144096
 20
1121.987170289632
 10
2019.549010428073
 20
1122.36901349804
 10
2018.564430467739
 20
1123.191342437448
 10
2018.167285646816
 20
1123.630834945226
 10
2017.559119373014
 20
1124.508778177292
 10
2017.347133335119
 20
1124.94625545858
 10
2017.073625285719
 20
1125.796203044869
 10
2017.010458392409
 20
1126.209301058767
 10
2017.010458392409
 20
1126.621397622856
 97
        0
 72
     1
 10
2017.010458392409
 20
1126.62139762286
 11
2017.010458392409
 21
1150.621397622851
 97
        4
330
85C
330
856
330
85A
330
858
 92
        5
 93
        4
 72
     3
 10
2057.510458392414
 20
1150.621397622856
 11
-14.5
 21
-0.0000000000002274
 40
0.8275862068965517
 50
180.0
 51
360.0
 73
     1
 72
     1
 10
2043.010458392414
 20
1150.621397622856
 11
2043.010458392414
 21
1126.621397622859
 72
     3
 10
2057.510458392414
 20
1126.621397622855
 11
-14.5
 21
0.0000000000002274
 40
0.8275862068965517
 50
0.0
 51
180.0
 73
     1
 72
     1
 10
2072.010458392414
 20
1126.621397622855
 11
2072.010458392414
 21
1150.621397622856
 97
        4
330
849
330
83D
330
842
330
83B
 92
       20
 93
        4
 72
     4
 94
        3
 73
     0
 74
     0
 95
       32
 96
       28
 40
0.0
 40
0.0
 40
0.0
 40
0.0
 40
0.2602715141612674
 40
0.2602715141612674
 40
0.5205430283225349
 40
0.5205430283225349
 40
0.7808145424838023
 40
0.7808145424838023
 40
1.041086056645069
 40
1.041086056645069
 40
1.301357570806337
 40
1.301357570806337
 40
1.561629084967604
 40
1.561629084967604
 40
1.821900599128872
 40
1.821900599128872
 40
2.082172113290139
 40
2.082172113290139
 40
2.342443627451406
 40
2.342443627451406
 40
2.602715141612673
 40
2.602715141612673
 40
2.862986655773941
 40
2.862986655773941
 40
3.123258169935208
 40
3.123258169935208
 40
3.139171741141365
 40
3.139171741141365
 40
3.139171741141365
 40
3.139171741141365
 10
2049.010458392414
 20
1150.621397622855
 10
2049.010458392414
 20
1151.033494186944
 10
2049.073625285725
 20
1151.446592200842
 10
2049.347133335123
 20
1152.296539787131
 10
2049.559119373019
 20
1152.734017068419
 10
2050.167285646821
 20
1153.611960300485
 10
2050.564430467744
 20
1154.051452808263
 10
2051.549010428078
 20
1154.873781747671
 10
2052.136310144101
 20
1155.25562495608
 10
2053.464278801101
 20
1155.899125104174
 10
2054.204442694184
 20
1156.160297865685
 10
2055.770512035774
 20
1156.518209293364
 10
2056.595922423644
 20
1156.614790701232
 10
2058.250188196705
 20
1156.627341442653
 10
2059.078584556755
 20
1156.543306518574
 10
2060.656111170143
 20
1156.208411513236
 10
2061.404750295958
 20
1155.957694035004
 10
2062.753633745037
 20
1155.331254305633
 10
2063.353367188969
 20
1154.955985008732
 10
2064.364178241018
 20
1154.142147181391
 10
2064.775070892637
 20
1153.704538873937
 10
2065.409103891586
 20
1152.826946093355
 10
2065.633117625925
 20
1152.387983098386
 10
2065.927913364781
 20
1151.535081199242
 10
2066.00036118243
 20
1151.120664963499
 10
2066.010051932298
 20
1150.683290646695
 10
2066.010374238425
 20
1150.658090406488
 10
2066.010458392414
 20
1150.63288839125
 97
        0
 72
     1
 10
2066.010458392414
 20
1150.63288839125
 11
2066.010458392413
 21
1126.621015862232
 72
     4
 94
        3
 73
     0
 74
     0
 95
       32
 96
       28
 40
0.0
 40
0.0
 40
0.0
 40
0.0
 40
0.0183321218771289
 40
0.0183321218771289
 40
0.2786036360383961
 40
0.2786036360383961
 40
0.5388751501996634
 40
0.5388751501996634
 40
0.7991466643609307
 40
0.7991466643609307
 40
1.059418178522197
 40
1.059418178522197
 40
1.319689692683465
 40
1.319689692683465
 40
1.579961206844732
 40
1.579961206844732
 40
1.840232721006
 40
1.840232721006
 40
2.100504235167267
 40
2.100504235167267
 40
2.360775749328535
 40
2.360775749328535
 40
2.621047263489802
 40
2.621047263489802
 40
2.88131877765107
 40
2.88131877765107
 40
3.141590291812337
 40
3.141590291812337
 40
3.141590291812337
 40
3.141590291812337
 10
2066.010480251821
 20
1126.621397622855
 10
2066.01046675415
 20
1126.592364702135
 10
2066.01013679412
 20
1126.563334682549
 10
2066.00036118243
 20
1126.122130282212
 10
2065.927913364781
 20
1125.707714046469
 10
2065.633117625925
 20
1124.854812147325
 10
2065.409103891586
 20
1124.415849152356
 10
2064.775070892637
 20
1123.538256371774
 10
2064.364178241018
 20
1123.10064806432
 10
2063.353367188969
 20
1122.286810236979
 10
2062.753633745037
 20
1121.911540940078
 10
2061.404750295958
 20
1121.285101210707
 10
2060.656111170143
 20
1121.034383732475
 10
2059.078584556755
 20
1120.699488727137
 10
2058.250188196705
 20
1120.615453803058
 10
2056.595922423644
 20
1120.628004544479
 10
2055.770512035774
 20
1120.724585952348
 10
2054.204442694184
 20
1121.082497380026
 10
2053.464278801101
 20
1121.343670141537
 10
2052.136310144101
 20
1121.987170289632
 10
2051.549010428078
 20
1122.36901349804
 10
2050.564430467744
 20
1123.191342437448
 10
2050.167285646821
 20
1123.630834945226
 10
2049.559119373019
 20
1124.508778177292
 10
2049.347133335123
 20
1124.94625545858
 10
2049.073625285725
 20
1125.796203044869
 10
2049.010458392414
 20
1126.209301058767
 10
2049.010458392414
 20
1126.621397622856
 97
        0
 72
     1
 10
2049.010458392414
 20
1126.621397622864
 11
2049.010458392414
 21
1150.621397622847
 97
        4
330
84A
330
83C
330
843
330
83F
 92
        5
 93
       21
 72
     4
 94
        3
 73
     0
 74
     0
 95
       26
 96
       22
 40
3.141596360433095
 40
3.141596360433095
 40
3.141596360433095
 40
3.141596360433095
 40
3.414504314507823
 40
3.414504314507823
 40
3.724207389840668
 40
3.724207389840668
 40
4.033910465173514
 40
4.033910465173514
 40
4.34361354050636
 40
4.34361354050636
 40
4.653316615839205
 40
4.653316615839205
 40
5.111440602752013
 40
5.111440602752013
 40
5.46944197766617
 40
5.46944197766617
 40
5.827443352580326
 40
5.827443352580326
 40
6.096596012142886
 40
6.096596012142886
 40
6.283185307179586
 40
6.283185307179586
 40
6.283185307179586
 40
6.283185307179586
 10
2008.01031785676
 20
1150.621397622855
 10
2008.009620934764
 20
1151.80378458649
 10
2007.819270706396
 20
1152.985631516501
 10
2007.041656856103
 20
1155.366966669843
 10
2006.40718049218
 20
1156.545743598996
 10
2004.817931228092
 20
1158.613107099475
 10
2003.864934651395
 20
1159.502999455494
 10
2001.764219648823
 20
1160.954556667681
 10
2000.616494391543
 20
1161.517481662166
 10
1998.224411920939
 20
1162.309850446322
 10
1996.979609387445
 20
1162.539761132966
 10
1993.875334366064
 20
1162.697124030489
 10
1992.005543705176
 20
1162.426805762198
 10
1988.88020657495
 20
1161.297197829376
 10
1987.57912238304
 20
1160.578474708301
 10
1985.274483447398
 20
1158.71200209693
 10
1984.271624510672
 20
1157.561317173884
 10
1982.948615754277
 20
1155.247760966743
 10
1982.522330988592
 20
1154.159772885286
 10
1982.099137255443
 20
1152.23834845163
 10
1982.010458392401
 20
1151.429951958735
 10
1982.010458392401
 20
1150.621397622855
 97
        0
 72
     1
 10
1982.010458392401
 20
1150.621397622855
 11
1982.010458392401
 21
1149.121397622856
 72
     1
 10
1982.010458392401
 20
1149.121397622856
 11
1988.010458392401
 21
1149.121397622856
 72
     1
 10
1988.010458392401
 20
1149.121397622856
 11
1988.010458392401
 21
1150.621397622855
 72
     3
 10
1995.010469322105
 20
1150.621397622856
 11
-7.000010929703648
 21
-0.0000000000004547
 40
0.8571409087909856
 50
0.0
 51
180.0
 73
     0
 72
     1
 10
2002.010480251809
 20
1150.621397622856
 11
2002.010480251809
 21
1147.324619429837
 72
     4
 94
        3
 73
     0
 74
     0
 95
       20
 96
       16
 40
1.56243667843499
 40
1.56243667843499
 40
1.56243667843499
 40
1.56243667843499
 40
1.580768800312119
 40
1.580768800312119
 40
1.841040314473386
 40
1.841040314473386
 40
2.101311828634653
 40
2.101311828634653
 40
2.36158334279592
 40
2.36158334279592
 40
2.621854856957188
 40
2.621854856957188
 40
2.882126371118455
 40
2.882126371118455
 40
3.141590291812337
 40
3.141590291812337
 40
3.141590291812337
 40
3.141590291812337
 10
2002.010480251809
 20
1147.621121878974
 10
2002.010466754138
 20
1147.592088958254
 10
2002.010136794107
 20
1147.563058938668
 10
2002.000361182418
 20
1147.121854538331
 10
2001.927913364769
 20
1146.707438302587
 10
2001.633117625913
 20
1145.854536403444
 10
2001.409103891573
 20
1145.415573408474
 10
2000.775070892625
 20
1144.537980627893
 10
2000.364178241006
 20
1144.100372320438
 10
1999.353367188957
 20
1143.286534493098
 10
1998.753633745025
 20
1142.911265196197
 10
1997.404750295945
 20
1142.284825466826
 10
1996.65611117013
 20
1142.034107988594
 10
1995.081032001274
 20
1141.699732554173
 10
1994.255328658055
 20
1141.615700364251
 10
1993.430754848601
 20
1141.621397622856
 97
        0
 72
     1
 10
1993.430754848601
 20
1141.621397622856
 11
1992.436038395465
 21
1141.621397622856
 72
     1
 10
1992.436038395465
 20
1141.621397622856
 11
1992.436038395465
 21
1135.621397622855
 72
     1
 10
1992.436038395465
 20
1135.621397622855
 11
1993.430754848601
 21
1135.621397622855
 72
     4
 94
        3
 73
     0
 74
     0
 95
       20
 96
       16
 40
1.56243667843499
 40
1.56243667843499
 40
1.56243667843499
 40
1.56243667843499
 40
1.821900599128872
 40
1.821900599128872
 40
2.082172113290139
 40
2.082172113290139
 40
2.342443627451406
 40
2.342443627451406
 40
2.602715141612673
 40
2.602715141612673
 40
2.862986655773941
 40
2.862986655773941
 40
3.123258169935208
 40
3.123258169935208
 40
3.141590291812337
 40
3.141590291812337
 40
3.141590291812337
 40
3.141590291812337
 10
1993.430754848601
 20
1135.621397622855
 10
1994.255328658055
 20
1135.62709488146
 10
1995.081032001274
 20
1135.543062691538
 10
1996.65611117013
 20
1135.208687257117
 10
1997.404750295945
 20
1134.957969778885
 10
1998.753633745025
 20
1134.331530049514
 10
1999.353367188957
 20
1133.956260752613
 10
2000.364178241006
 20
1133.142422925273
 10
2000.775070892625
 20
1132.704814617818
 10
2001.409103891573
 20
1131.827221837237
 10
2001.633117625913
 20
1131.388258842267
 10
2001.927913364769
 20
1130.535356943124
 10
2002.000361182418
 20
1130.120940707381
 10
2002.010136794107
 20
1129.679736307044
 10
2002.010466754138
 20
1129.650706287457
 10
2002.010480251809
 20
1129.621673366737
 97
        0
 72
     1
 10
2002.010480251809
 20
1129.621673366737
 11
2002.010480251809
 21
1126.31742790512
 72
     4
 94
        3
 73
     0
 74
     0
 95
       32
 96
       28
 40
0.0
 40
0.0
 40
0.0
 40
0.0
 40
0.0183321218771289
 40
0.0183321218771289
 40
0.2786036360383961
 40
0.2786036360383961
 40
0.5388751501996634
 40
0.5388751501996634
 40
0.7991466643609307
 40
0.7991466643609307
 40
1.059418178522197
 40
1.059418178522197
 40
1.319689692683465
 40
1.319689692683465
 40
1.579961206844732
 40
1.579961206844732
 40
1.840232721006
 40
1.840232721006
 40
2.100504235167267
 40
2.100504235167267
 40
2.360775749328535
 40
2.360775749328535
 40
2.621047263489802
 40
2.621047263489802
 40
2.88131877765107
 40
2.88131877765107
 40
3.141590291812337
 40
3.141590291812337
 40
3.141590291812337
 40
3.141590291812337
 10
2002.010480251809
 20
1126.621397622855
 10
2002.010466754138
 20
1126.592364702135
 10
2002.010136794107
 20
1126.563334682549
 10
2002.000361182418
 20
1126.122130282212
 10
2001.927913364769
 20
1125.707714046469
 10
2001.633117625913
 20
1124.854812147325
 10
2001.409103891573
 20
1124.415849152356
 10
2000.775070892625
 20
1123.538256371774
 10
2000.364178241006
 20
1123.10064806432
 10
1999.353367188957
 20
1122.286810236979
 10
1998.753633745025
 20
1121.911540940078
 10
1997.404750295945
 20
1121.285101210707
 10
1996.65611117013
 20
1121.034383732475
 10
1995.078584556743
 20
1120.699488727137
 10
1994.250188196693
 20
1120.615453803058
 10
1992.595922423632
 20
1120.628004544479
 10
1991.770512035762
 20
1120.724585952348
 10
1990.204442694172
 20
1121.082497380026
 10
1989.464278801088
 20
1121.343670141537
 10
1988.136310144089
 20
1121.987170289632
 10
1987.549010428066
 20
1122.36901349804
 10
1986.564430467731
 20
1123.191342437448
 10
1986.167285646809
 20
1123.630834945226
 10
1985.559119373006
 20
1124.508778177292
 10
1985.347133335111
 20
1124.94625545858
 10
1985.073625285712
 20
1125.796203044869
 10
1985.010458392401
 20
1126.209301058767
 10
1985.010458392401
 20
1126.621397622856
 97
        0
 72
     1
 10
1985.010458392401
 20
1126.621397622856
 11
1985.010458392401
 21
1128.121397622855
 72
     1
 10
1985.010458392401
 20
1128.121397622855
 11
1979.010458392401
 21
1128.121397622855
 72
     1
 10
1979.010458392401
 20
1128.121397622855
 11
1979.010458392401
 21
1126.621397622856
 72
     3
 10
1993.510458392401
 20
1126.621397622855
 11
-14.5
 21
0.0000000000002274
 40
0.8275862068965517
 50
0.0
 51
180.0
 73
     1
 72
     1
 10
2008.010458392401
 20
1126.621397622855
 11
2008.010458392401
 21
1129.621673366737
 72
     3
 10
1993.510458392401
 20
1129.621673366737
 11
-14.5
 21
-0.0000000000002274
 40
0.8275862068965517
 50
180.0
 51
223.1776541619206
 73
     1
 72
     3
 10
1993.510458392401
 20
1147.621121878974
 11
-14.5
 21
0.0000000000002274
 40
0.8275862068965517
 50
136.8223458380367
 51
180.0
 73
     1
 72
     1
 10
2008.010458392401
 20
1147.621121878974
 11
2008.010458392401
 21
1150.618894197827
 97
       21
330
87C
330
872
330
86E
330
871
330
87B
330
875
330
86D
330
A05
330
889
330
A04
330
861
330
866
330
85F
330
86A
330
869
330
86B
330
85E
330
85D
330
860
330
86C
330
876
 92
        7
 72
     0
 73
     1
 93
        8
 10
2110.510458392413
 20
1162.621397622856
 10
2079.010458392414
 20
1162.621397622855
 10
2079.010458392413
 20
1156.621397622855
 10
2091.760458392413
 20
1156.621397622855
 10
2091.760458392414
 20
1114.621397622856
 10
2097.760458392414
 20
1114.621397622856
 10
2097.760458392413
 20
1156.621397622855
 10
2110.510458392413
 20
1156.621397622855
 97
        8
330
831
330
833
330
838
330
835
330
832
330
836
330
837
330
830
 92
        7
 72
     0
 73
     1
 93
        6
 10
2141.510458392414
 20
1162.621397622855
 10
2135.510458392413
 20
1162.621397622855
 10
2135.510458392413
 20
1114.621397622856
 10
2162.010458392414
 20
1114.621397622856
 10
2162.010458392414
 20
1120.621397622856
 10
2141.510458392413
 20
1120.621397622856
 97
        6
330
7D1
330
7CD
330
7CE
330
7CC
330
7CF
330
7D0
 92
        5
 93
        8
 72
     1
 10
2171.010458392414
 20
1162.621397622856
 11
2165.010458392414
 21
1162.621397622856
 72
     1
 10
2165.010458392414
 20
1162.621397622856
 11
2165.010458392414
 21
1126.621397622863
 72
     3
 10
2179.510458392414
 20
1126.621397622855
 11
-14.5
 21
0.0000000000002274
 40
0.8275862068965517
 50
0.0
 51
180.0
 73
     1
 72
     1
 10
2194.010458392414
 20
1126.621397622855
 11
2194.010458392414
 21
1162.621397622855
 72
     1
 10
2194.010458392414
 20
1162.621397622855
 11
2188.010458392414
 21
1162.621397622856
 72
     1
 10
2188.010458392414
 20
1162.621397622856
 11
2188.010458392414
 21
1126.317302242422
 72
     4
 94
        3
 73
     0
 74
     0
 95
       32
 96
       28
 40
0.0
 40
0.0
 40
0.0
 40
0.0
 40
0.0183321218771289
 40
0.0183321218771289
 40
0.2786036360383961
 40
0.2786036360383961
 40
0.5388751501996634
 40
0.5388751501996634
 40
0.7991466643609307
 40
0.7991466643609307
 40
1.059418178522197
 40
1.059418178522197
 40
1.319689692683465
 40
1.319689692683465
 40
1.579961206844732
 40
1.579961206844732
 40
1.840232721006
 40
1.840232721006
 40
2.100504235167267
 40
2.100504235167267
 40
2.360775749328535
 40
2.360775749328535
 40
2.621047263489802
 40
2.621047263489802
 40
2.88131877765107
 40
2.88131877765107
 40
3.141590291812337
 40
3.141590291812337
 40
3.141590291812337
 40
3.141590291812337
 10
2188.010480251822
 20
1126.621397622855
 10
2188.01046675415
 20
1126.592364702135
 10
2188.01013679412
 20
1126.563334682549
 10
2188.00036118243
 20
1126.122130282212
 10
2187.927913364782
 20
1125.707714046469
 10
2187.633117625926
 20
1124.854812147325
 10
2187.409103891586
 20
1124.415849152356
 10
2186.775070892637
 20
1123.538256371774
 10
2186.364178241019
 20
1123.10064806432
 10
2185.353367188969
 20
1122.286810236979
 10
2184.753633745037
 20
1121.911540940078
 10
2183.404750295958
 20
1121.285101210707
 10
2182.656111170143
 20
1121.034383732475
 10
2181.078584556756
 20
1120.699488727137
 10
2180.250188196706
 20
1120.615453803058
 10
2178.595922423645
 20
1120.628004544479
 10
2177.770512035774
 20
1120.724585952348
 10
2176.204442694185
 20
1121.082497380026
 10
2175.464278801101
 20
1121.343670141537
 10
2174.136310144101
 20
1121.987170289632
 10
2173.549010428079
 20
1122.36901349804
 10
2172.564430467744
 20
1123.191342437448
 10
2172.167285646822
 20
1123.630834945226
 10
2171.559119373019
 20
1124.508778177292
 10
2171.347133335124
 20
1124.94625545858
 10
2171.073625285725
 20
1125.796203044869
 10
2171.010458392414
 20
1126.209301058767
 10
2171.010458392414
 20
1126.621397622856
 97
        0
 72
     1
 10
2171.010458392414
 20
1126.621397622856
 11
2171.010458392414
 21
1162.621397622856
 97
        8
330
7BE
330
7BA
330
7C1
330
7B8
330
7B9
330
7BD
330
7C3
330
7BC
 92
        7
 72
     0
 73
     1
 93
       12
 10
2203.894543298921
 20
1162.621397622855
 10
2197.010458392414
 20
1162.621397622855
 10
2210.068415939161
 20
1138.621397622855
 10
2197.010458392414
 20
1114.621397622855
 10
2203.894543298921
 20
1114.621397622855
 10
2213.510458392414
 20
1132.295062238293
 10
2223.126373485906
 20
1114.621397622855
 10
2230.010458392413
 20
1114.621397622855
 10
2216.952500845668
 20
1138.621397622855
 10
2230.010458392414
 20
1162.621397622855
 10
2223.126373485907
 20
1162.621397622855
 10
2213.510458392414
 20
1144.947733007417
 97
       12
330
7AE
330
7B4
330
7AB
330
7A3
330
7AC
330
7B1
330
7AF
330
7B0
330
7B3
330
7A2
330
7B6
330
7B5
 92
        7
 72
     0
 73
     1
 93
       12
 10
2239.010458392414
 20
1156.621397622855
 10
2260.510458392414
 20
1156.621397622855
 10
2260.510458392414
 20
1162.621397622855
 10
2233.010458392414
 20
1162.621397622855
 10
2233.010458392414
 20
1114.621397622856
 10
2260.510458392414
 20
1114.621397622856
 10
2260.510458392414
 20
1120.621397622856
 10
2239.010458392414
 20
1120.621397622856
 10
2239.010458392414
 20
1135.621397622855
 10
2259.510458392414
 20
1135.621397622855
 10
2259.510458392414
 20
1141.621397622855
 10
2239.010458392414
 20
1141.621397622855
 97
       12
330
799
330
794
330
796
330
795
330
793
330
79E
330
797
330
79F
330
79C
330
79D
330
79B
330
798
 75
     1
 76
     1
 47
0.4513303230038953
 98
       10
 10
2029.967625201813
 20
1158.553541200715
 10
2029.967625201813
 20
1158.553541200715
 10
2051.199247998601
 20
1156.748220016427
 10
2051.199247998601
 20
1156.748220016427
 10
2000.153007216173
 20
1159.456201196639
 10
2093.210757597406
 20
1160.810192382964
 10
2139.739629965977
 20
1156.296888826026
 10
2169.554250773662
 20
1149.97826527724
 10
2211.565757550422
 20
1146.818952906627
 10
2235.056063143116
 20
1146.818952906627
450
        0
451
        0
460
0.0
461
0.0
452
        0
462
1.0
453
        2
463
0.0
 63
     5
421
      255
463
1.0
 63
     2
421
 16776960
470
LINEAR
1001
GradientColor1ACI
1070
     5
1001
GradientColor2ACI
1070
     2
1001
ACAD
1010
0.0
1020
0.0
1030
0.0
  0
HATCH
  5
AFE
330
1F
100
AcDbEntity
  8
0
100
AcDbHatch
 10
0.0
 20
0.0
 30
0.0
210
0.0
220
0.0
230
1.0
  2
SOLID
 70
     1
 71
     1
 91
        4
 92
        7
 72
     0
 73
     1
 93
        4
 10
1966.010458392401
 20
1162.621397622856
 10
1901.010458392401
 20
1162.621397622856
 10
1901.010458392401
 20
1150.121397622855
 10
1966.010458392401
 20
1150.121397622855
 97
        4
330
882
330
884
330
883
330
886
 92
        7
 72
     0
 73
     1
 93
        4
 10
1966.010458392401
 20
1127.121397622856
 10
1901.010458392401
 20
1127.121397622856
 10
1901.010458392401
 20
1114.621397622856
 10
1966.010458392401
 20
1114.621397622856
 97
        4
330
881
330
885
330
880
330
87E
 92
        7
 72
     0
 73
     1
 93
        4
 10
2801.010458392413
 20
1162.621397622856
 10
2273.510458392414
 20
1162.621397622856
 10
2273.510458392414
 20
1150.121397622855
 10
2801.010458392413
 20
1150.121397622855
 97
        4
330
78E
330
791
330
78F
330
7EC
 92
        7
 72
     0
 73
     1
 93
        4
 10
2801.010458392413
 20
1127.121397622856
 10
2273.510458392414
 20
1127.121397622856
 10
2273.510458392414
 20
1114.621397622856
 10
2801.010458392413
 20
1114.621397622856
 97
        4
330
790
330
792
330
78D
330
7EB
 75
     1
 76
     1
 47
1.155215222239263
 98
        4
 10
1946.641859894107
 20
1156.886157838723
 10
1931.610540376865
 20
1118.764054719155
 10
2298.143449709808
 20
1158.041372940233
 10
2294.67468540401
 20
1123.384916317632
450
        0
451
        0
460
0.0
461
0.0
452
        0
462
1.0
453
        2
463
0.0
 63
     5
421
      255
463
1.0
 63
     2
421
 16776960
470
LINEAR
1001
GradientColor1ACI
1070
     5
1001
GradientColor2ACI
1070
     2
1001
ACAD
1010
0.0
1020
0.0
1030
0.0
  0
HATCH
  5
AFF
330
1F
100
AcDbEntity
  8
0
100
AcDbHatch
 10
0.0
 20
0.0
 30
0.0
210
0.0
220
0.0
230
1.0
  2
SOLID
 70
     1
 71
     0
 91
        4
 92
        7
 72
     0
 73
     1
 93
        4
 10
1966.010458392401
 20
485.1934318338942
 10
1901.010458392401
 20
485.1934318338942
 10
1901.010458392401
 20
472.6934318338942
 10
1966.010458392401
 20
472.6934318338942
 97
        0
 92
        7
 72
     0
 73
     1
 93
        4
 10
1966.010458392401
 20
449.6934318338942
 10
1901.010458392401
 20
449.6934318338942
 10
1901.010458392401
 20
437.1934318338942
 10
1966.010458392401
 20
437.1934318338942
 97
        0
 92
        7
 72
     0
 73
     1
 93
        4
 10
2801.010458392413
 20
485.1934318338942
 10
2273.510458392414
 20
485.1934318338942
 10
2273.510458392414
 20
472.6934318338942
 10
2801.010458392413
 20
472.6934318338942
 97
        0
 92
        7
 72
     0
 73
     1
 93
        4
 10
2801.010458392413
 20
449.6934318338942
 10
2273.510458392414
 20
449.6934318338942
 10
2273.510458392414
 20
437.1934318338942
 10
2801.010458392413
 20
437.1934318338942
 97
        0
 75
     1
 76
     1
 47
1.155215222239263
 98
        4
 10
1946.641859894107
 20
479.4581920497619
 10
1931.610540376865
 20
441.3360889301936
 10
2298.143449709808
 20
480.6134071512714
 10
2294.67468540401
 20
445.9569505286706
450
        0
451
        0
460
0.0
461
0.0
452
        0
462
1.0
453
        2
463
0.0
 63
     5
421
      255
463
1.0
 63
     2
421
 16776960
470
LINEAR
1001
GradientColor1ACI
1070
     5
1001
GradientColor2ACI
1070
     2
1001
ACAD
1010
0.0
1020
0.0
1030
0.0
  0
HATCH
  5
B06
330
1F
100
AcDbEntity
  8
0
100
AcDbHatch
 10
0.0
 20
0.0
 30
0.0
210
0.0
220
0.0
230
1.0
  2
SOLID
 70
     1
 71
     0
 91
       10
 92
        5
 93
        4
 72
     3
 10
2025.510458392409
 20
473.1934318338944
 11
-14.5
 21
-0.0000000000002274
 40
0.8275862068965517
 50
180.0
 51
360.0
 73
     1
 72
     1
 10
2011.010458392409
 20
473.1934318338942
 11
2011.010458392409
 21
449.1934318338978
 72
     3
 10
2025.510458392409
 20
449.193431833894
 11
-14.5
 21
0.0000000000002274
 40
0.8275862068965517
 50
0.0
 51
180.0
 73
     1
 72
     1
 10
2040.010458392409
 20
449.1934318338937
 11
2040.010458392409
 21
473.1934318338947
 97
        0
 92
       20
 93
        4
 72
     4
 94
        3
 73
     0
 74
     0
 95
       32
 96
       28
 40
0.0
 40
0.0
 40
0.0
 40
0.0
 40
0.2602715141612674
 40
0.2602715141612674
 40
0.5205430283225349
 40
0.5205430283225349
 40
0.7808145424838023
 40
0.7808145424838023
 40
1.041086056645069
 40
1.041086056645069
 40
1.301357570806337
 40
1.301357570806337
 40
1.561629084967604
 40
1.561629084967604
 40
1.821900599128872
 40
1.821900599128872
 40
2.082172113290139
 40
2.082172113290139
 40
2.342443627451406
 40
2.342443627451406
 40
2.602715141612673
 40
2.602715141612673
 40
2.862986655773941
 40
2.862986655773941
 40
3.123258169935208
 40
3.123258169935208
 40
3.139171741138066
 40
3.139171741138066
 40
3.139171741138066
 40
3.139171741138066
 10
2017.010458392409
 20
473.1934318338939
 10
2017.010458392409
 20
473.6055283979829
 10
2017.073625285719
 20
474.0186264118809
 10
2017.347133335119
 20
474.8685739981697
 10
2017.559119373014
 20
475.3060512794579
 10
2018.167285646816
 20
476.1839945115236
 10
2018.564430467739
 20
476.6234870193023
 10
2019.549010428073
 20
477.44581595871
 10
2020.136310144096
 20
477.8276591671183
 10
2021.464278801096
 20
478.4711593152128
 10
2022.204442694179
 20
478.7323320767239
 10
2023.770512035769
 20
479.0902435044022
 10
2024.595922423639
 20
479.1868249122703
 10
2026.2501881967
 20
479.1993756536919
 10
2027.07858455675
 20
479.1153407296124
 10
2028.656111170138
 20
478.7804457242746
 10
2029.404750295952
 20
478.5297282460428
 10
2030.753633745032
 20
477.9032885166716
 10
2031.353367188964
 20
477.5280192197706
 10
2032.364178241013
 20
476.7141813924301
 10
2032.775070892632
 20
476.2765730849755
 10
2033.40910389158
 20
475.3989803043942
 10
2033.633117625921
 20
474.960017309425
 10
2033.927913364776
 20
474.107115410281
 10
2034.000361182425
 20
473.6926991745378
 10
2034.010051932293
 20
473.2553248577387
 10
2034.01037423842
 20
473.2301246175374
 10
2034.010458392409
 20
473.2049226023048
 97
        0
 72
     1
 10
2034.010458392408
 20
473.2049226023125
 11
2034.010458392408
 21
449.1930500732707
 72
     4
 94
        3
 73
     0
 74
     0
 95
       32
 96
       28
 40
0.0
 40
0.0
 40
0.0
 40
0.0
 40
0.0183321218771289
 40
0.0183321218771289
 40
0.2786036360383961
 40
0.2786036360383961
 40
0.5388751501996634
 40
0.5388751501996634
 40
0.7991466643609307
 40
0.7991466643609307
 40
1.059418178522197
 40
1.059418178522197
 40
1.319689692683465
 40
1.319689692683465
 40
1.579961206844732
 40
1.579961206844732
 40
1.840232721006
 40
1.840232721006
 40
2.100504235167267
 40
2.100504235167267
 40
2.360775749328535
 40
2.360775749328535
 40
2.621047263489802
 40
2.621047263489802
 40
2.88131877765107
 40
2.88131877765107
 40
3.141590291812337
 40
3.141590291812337
 40
3.141590291812337
 40
3.141590291812337
 10
2034.010480251816
 20
449.193431833894
 10
2034.010466754145
 20
449.1643989131741
 10
2034.010136794115
 20
449.1353688935873
 10
2034.000361182425
 20
448.6941644932506
 10
2033.927913364776
 20
448.2797482575074
 10
2033.633117625921
 20
447.4268463583634
 10
2033.40910389158
 20
446.9878833633942
 10
2032.775070892632
 20
446.1102905828129
 10
2032.364178241013
 20
445.6726822753583
 10
2031.353367188964
 20
444.8588444480178
 10
2030.753633745032
 20
444.4835751511168
 10
2029.404750295952
 20
443.8571354217456
 10
2028.656111170138
 20
443.6064179435138
 10
2027.07858455675
 20
443.271522938176
 10
2026.2501881967
 20
443.1874880140965
 10
2024.595922423639
 20
443.2000387555181
 10
2023.770512035769
 20
443.2966201633862
 10
2022.204442694179
 20
443.6545315910645
 10
2021.464278801096
 20
443.9157043525756
 10
2020.136310144096
 20
444.5592045006701
 10
2019.549010428073
 20
444.9410477090784
 10
2018.564430467739
 20
445.7633766484861
 10
2018.167285646816
 20
446.2028691562648
 10
2017.559119373014
 20
447.0808123883305
 10
2017.347133335119
 20
447.5182896696187
 10
2017.073625285719
 20
448.3682372559075
 10
2017.010458392409
 20
448.7813352698055
 10
2017.010458392409
 20
449.1934318338945
 97
        0
 72
     1
 10
2017.010458392409
 20
449.1934318338983
 11
2017.010458392409
 21
473.1934318338899
 97
        0
 92
        5
 93
        4
 72
     3
 10
2057.510458392414
 20
473.1934318338944
 11
-14.5
 21
-0.0000000000002274
 40
0.8275862068965517
 50
180.0
 51
360.0
 73
     1
 72
     1
 10
2043.010458392414
 20
473.1934318338942
 11
2043.010458392414
 21
449.1934318338978
 72
     3
 10
2057.510458392414
 20
449.193431833894
 11
-14.5
 21
0.0000000000002274
 40
0.8275862068965517
 50
0.0
 51
180.0
 73
     1
 72
     1
 10
2072.010458392414
 20
449.1934318338935
 11
2072.010458392414
 21
473.1934318338947
 97
        0
 92
       20
 93
        4
 72
     4
 94
        3
 73
     0
 74
     0
 95
       32
 96
       28
 40
0.0
 40
0.0
 40
0.0
 40
0.0
 40
0.2602715141612674
 40
0.2602715141612674
 40
0.5205430283225349
 40
0.5205430283225349
 40
0.7808145424838023
 40
0.7808145424838023
 40
1.041086056645069
 40
1.041086056645069
 40
1.301357570806337
 40
1.301357570806337
 40
1.561629084967604
 40
1.561629084967604
 40
1.821900599128872
 40
1.821900599128872
 40
2.082172113290139
 40
2.082172113290139
 40
2.342443627451406
 40
2.342443627451406
 40
2.602715141612673
 40
2.602715141612673
 40
2.862986655773941
 40
2.862986655773941
 40
3.123258169935208
 40
3.123258169935208
 40
3.139171741141365
 40
3.139171741141365
 40
3.139171741141365
 40
3.139171741141365
 10
2049.010458392414
 20
473.1934318338939
 10
2049.010458392414
 20
473.6055283979829
 10
2049.073625285725
 20
474.0186264118809
 10
2049.347133335123
 20
474.8685739981697
 10
2049.559119373019
 20
475.3060512794579
 10
2050.167285646821
 20
476.1839945115236
 10
2050.564430467744
 20
476.6234870193023
 10
2051.549010428078
 20
477.44581595871
 10
2052.136310144101
 20
477.8276591671183
 10
2053.464278801101
 20
478.4711593152128
 10
2054.204442694184
 20
478.7323320767239
 10
2055.770512035774
 20
479.0902435044022
 10
2056.595922423644
 20
479.1868249122703
 10
2058.250188196705
 20
479.1993756536919
 10
2059.078584556755
 20
479.1153407296124
 10
2060.656111170143
 20
478.7804457242746
 10
2061.404750295958
 20
478.5297282460428
 10
2062.753633745037
 20
477.9032885166716
 10
2063.353367188969
 20
477.5280192197706
 10
2064.364178241018
 20
476.7141813924301
 10
2064.775070892637
 20
476.2765730849755
 10
2065.409103891586
 20
475.3989803043942
 10
2065.633117625925
 20
474.960017309425
 10
2065.927913364781
 20
474.107115410281
 10
2066.00036118243
 20
473.6926991745378
 10
2066.010051932298
 20
473.2553248577334
 10
2066.010374238425
 20
473.230124617527
 10
2066.010458392414
 20
473.2049226022891
 97
        0
 72
     1
 10
2066.010458392414
 20
473.2049226022891
 11
2066.010458392413
 21
449.193050073271
 72
     4
 94
        3
 73
     0
 74
     0
 95
       32
 96
       28
 40
0.0
 40
0.0
 40
0.0
 40
0.0
 40
0.0183321218771289
 40
0.0183321218771289
 40
0.2786036360383961
 40
0.2786036360383961
 40
0.5388751501996634
 40
0.5388751501996634
 40
0.7991466643609307
 40
0.7991466643609307
 40
1.059418178522197
 40
1.059418178522197
 40
1.319689692683465
 40
1.319689692683465
 40
1.579961206844732
 40
1.579961206844732
 40
1.840232721006
 40
1.840232721006
 40
2.100504235167267
 40
2.100504235167267
 40
2.360775749328535
 40
2.360775749328535
 40
2.621047263489802
 40
2.621047263489802
 40
2.88131877765107
 40
2.88131877765107
 40
3.141590291812337
 40
3.141590291812337
 40
3.141590291812337
 40
3.141590291812337
 10
2066.010480251821
 20
449.193431833894
 10
2066.01046675415
 20
449.1643989131741
 10
2066.01013679412
 20
449.1353688935873
 10
2066.00036118243
 20
448.6941644932506
 10
2065.927913364781
 20
448.2797482575074
 10
2065.633117625925
 20
447.4268463583634
 10
2065.409103891586
 20
446.9878833633942
 10
2064.775070892637
 20
446.1102905828129
 10
2064.364178241018
 20
445.6726822753583
 10
2063.353367188969
 20
444.8588444480178
 10
2062.753633745037
 20
444.4835751511168
 10
2061.404750295958
 20
443.8571354217456
 10
2060.656111170143
 20
443.6064179435138
 10
2059.078584556755
 20
443.271522938176
 10
2058.250188196705
 20
443.1874880140965
 10
2056.595922423644
 20
443.2000387555181
 10
2055.770512035774
 20
443.2966201633862
 10
2054.204442694184
 20
443.6545315910645
 10
2053.464278801101
 20
443.9157043525756
 10
2052.136310144101
 20
444.5592045006701
 10
2051.549010428078
 20
444.9410477090784
 10
2050.564430467744
 20
445.7633766484861
 10
2050.167285646821
 20
446.2028691562648
 10
2049.559119373019
 20
447.0808123883305
 10
2049.347133335123
 20
447.5182896696187
 10
2049.073625285725
 20
448.3682372559075
 10
2049.010458392414
 20
448.7813352698055
 10
2049.010458392414
 20
449.1934318338945
 97
        0
 72
     1
 10
2049.010458392414
 20
449.1934318339024
 11
2049.010458392414
 21
473.193431833886
 97
        0
 92
        5
 93
       21
 72
     4
 94
        3
 73
     0
 74
     0
 95
       26
 96
       22
 40
3.141596360433095
 40
3.141596360433095
 40
3.141596360433095
 40
3.141596360433095
 40
3.414504314507823
 40
3.414504314507823
 40
3.724207389840668
 40
3.724207389840668
 40
4.033910465173514
 40
4.033910465173514
 40
4.34361354050636
 40
4.34361354050636
 40
4.653316615839205
 40
4.653316615839205
 40
5.111440602752013
 40
5.111440602752013
 40
5.46944197766617
 40
5.46944197766617
 40
5.827443352580326
 40
5.827443352580326
 40
6.096596012142886
 40
6.096596012142886
 40
6.283185307179586
 40
6.283185307179586
 40
6.283185307179586
 40
6.283185307179586
 10
2008.01031785676
 20
473.1934318338938
 10
2008.009620934764
 20
474.3758187975288
 10
2007.819270706396
 20
475.5576657275394
 10
2007.041656856103
 20
477.9390008808816
 10
2006.40718049218
 20
479.1177778100346
 10
2004.817931228092
 20
481.1851413105137
 10
2003.864934651395
 20
482.0750336665323
 10
2001.764219648823
 20
483.5265908787203
 10
2000.616494391543
 20
484.0895158732048
 10
1998.224411920939
 20
484.8818846573613
 10
1996.979609387445
 20
485.111795344005
 10
1993.875334366064
 20
485.2691582415273
 10
1992.005543705176
 20
484.9988399732365
 10
1988.88020657495
 20
483.8692320404147
 10
1987.57912238304
 20
483.1505089193394
 10
1985.274483447398
 20
481.284036307969
 10
1984.271624510672
 20
480.1333513849226
 10
1982.948615754277
 20
477.8197951777813
 10
1982.522330988592
 20
476.7318070963248
 10
1982.099137255443
 20
474.8103826626683
 10
1982.010458392401
 20
474.0019861697732
 10
1982.010458392401
 20
473.1934318338935
 97
        0
 72
     1
 10
1982.010458392401
 20
473.1934318338935
 11
1982.010458392401
 21
471.6934318338942
 72
     1
 10
1982.010458392401
 20
471.6934318338942
 11
1988.010458392401
 21
471.6934318338942
 72
     1
 10
1988.010458392401
 20
471.6934318338942
 11
1988.010458392401
 21
473.1934318338939
 72
     3
 10
1995.010469322105
 20
473.1934318338944
 11
-7.000010929703648
 21
-0.0000000000004547
 40
0.8571409087909856
 50
0.0
 51
180.0
 73
     0
 72
     1
 10
2002.010480251809
 20
473.1934318338949
 11
2002.010480251809
 21
469.8966536408761
 72
     4
 94
        3
 73
     0
 74
     0
 95
       20
 96
       16
 40
1.56243667843499
 40
1.56243667843499
 40
1.56243667843499
 40
1.56243667843499
 40
1.580768800312119
 40
1.580768800312119
 40
1.841040314473386
 40
1.841040314473386
 40
2.101311828634653
 40
2.101311828634653
 40
2.36158334279592
 40
2.36158334279592
 40
2.621854856957188
 40
2.621854856957188
 40
2.882126371118455
 40
2.882126371118455
 40
3.141590291812337
 40
3.141590291812337
 40
3.141590291812337
 40
3.141590291812337
 10
2002.010480251809
 20
470.1931560900127
 10
2002.010466754138
 20
470.1641231692929
 10
2002.010136794107
 20
470.1350931497061
 10
2002.000361182418
 20
469.6938887493693
 10
2001.927913364769
 20
469.2794725136261
 10
2001.633117625913
 20
468.4265706144822
 10
2001.409103891573
 20
467.987607619513
 10
2000.775070892625
 20
467.1100148389316
 10
2000.364178241006
 20
466.6724065314769
 10
1999.353367188957
 20
465.8585687041365
 10
1998.753633745025
 20
465.4832994072355
 10
1997.404750295945
 20
464.8568596778643
 10
1996.65611117013
 20
464.6061421996326
 10
1995.081032001274
 20
464.2717667652116
 10
1994.255328658055
 20
464.1877345752901
 10
1993.430754848601
 20
464.1934318338947
 97
        0
 72
     1
 10
1993.430754848601
 20
464.1934318338947
 11
1992.436038395465
 21
464.1934318338944
 72
     1
 10
1992.436038395465
 20
464.1934318338944
 11
1992.436038395465
 21
458.1934318338942
 72
     1
 10
1992.436038395465
 20
458.1934318338942
 11
1993.430754848601
 21
458.1934318338937
 72
     4
 94
        3
 73
     0
 74
     0
 95
       20
 96
       16
 40
1.56243667843499
 40
1.56243667843499
 40
1.56243667843499
 40
1.56243667843499
 40
1.821900599128872
 40
1.821900599128872
 40
2.082172113290139
 40
2.082172113290139
 40
2.342443627451406
 40
2.342443627451406
 40
2.602715141612673
 40
2.602715141612673
 40
2.862986655773941
 40
2.862986655773941
 40
3.123258169935208
 40
3.123258169935208
 40
3.141590291812337
 40
3.141590291812337
 40
3.141590291812337
 40
3.141590291812337
 10
1993.430754848601
 20
458.1934318338937
 10
1994.255328658055
 20
458.1991290924984
 10
1995.081032001274
 20
458.1150969025769
 10
1996.65611117013
 20
457.7807214681558
 10
1997.404750295945
 20
457.5300039899241
 10
1998.753633745025
 20
456.9035642605529
 10
1999.353367188957
 20
456.5282949636518
 10
2000.364178241006
 20
455.7144571363115
 10
2000.775070892625
 20
455.2768488288568
 10
2001.409103891573
 20
454.3992560482754
 10
2001.633117625913
 20
453.9602930533062
 10
2001.927913364769
 20
453.1073911541623
 10
2002.000361182418
 20
452.6929749184191
 10
2002.010136794107
 20
452.2517705180823
 10
2002.010466754138
 20
452.2227404984955
 10
2002.010480251809
 20
452.1937075777757
 97
        0
 72
     1
 10
2002.010480251809
 20
452.1937075777759
 11
2002.010480251809
 21
448.8894621161589
 72
     4
 94
        3
 73
     0
 74
     0
 95
       32
 96
       28
 40
0.0
 40
0.0
 40
0.0
 40
0.0
 40
0.0183321218771289
 40
0.0183321218771289
 40
0.2786036360383961
 40
0.2786036360383961
 40
0.5388751501996634
 40
0.5388751501996634
 40
0.7991466643609307
 40
0.7991466643609307
 40
1.059418178522197
 40
1.059418178522197
 40
1.319689692683465
 40
1.319689692683465
 40
1.579961206844732
 40
1.579961206844732
 40
1.840232721006
 40
1.840232721006
 40
2.100504235167267
 40
2.100504235167267
 40
2.360775749328535
 40
2.360775749328535
 40
2.621047263489802
 40
2.621047263489802
 40
2.88131877765107
 40
2.88131877765107
 40
3.141590291812337
 40
3.141590291812337
 40
3.141590291812337
 40
3.141590291812337
 10
2002.010480251809
 20
449.193431833894
 10
2002.010466754138
 20
449.1643989131741
 10
2002.010136794107
 20
449.1353688935873
 10
2002.000361182418
 20
448.6941644932506
 10
2001.927913364769
 20
448.2797482575074
 10
2001.633117625913
 20
447.4268463583634
 10
2001.409103891573
 20
446.9878833633942
 10
2000.775070892625
 20
446.1102905828129
 10
2000.364178241006
 20
445.6726822753583
 10
1999.353367188957
 20
444.8588444480178
 10
1998.753633745025
 20
444.4835751511168
 10
1997.404750295945
 20
443.8571354217456
 10
1996.65611117013
 20
443.6064179435138
 10
1995.078584556743
 20
443.271522938176
 10
1994.250188196693
 20
443.1874880140965
 10
1992.595922423632
 20
443.2000387555181
 10
1991.770512035762
 20
443.2966201633862
 10
1990.204442694172
 20
443.6545315910645
 10
1989.464278801088
 20
443.9157043525756
 10
1988.136310144089
 20
444.5592045006701
 10
1987.549010428066
 20
444.9410477090784
 10
1986.564430467731
 20
445.7633766484861
 10
1986.167285646809
 20
446.2028691562648
 10
1985.559119373006
 20
447.0808123883305
 10
1985.347133335111
 20
447.5182896696187
 10
1985.073625285712
 20
448.3682372559075
 10
1985.010458392401
 20
448.7813352698055
 10
1985.010458392401
 20
449.1934318338945
 97
        0
 72
     1
 10
1985.010458392401
 20
449.1934318338945
 11
1985.010458392401
 21
450.6934318338942
 72
     1
 10
1985.010458392401
 20
450.6934318338942
 11
1979.010458392401
 21
450.6934318338942
 72
     1
 10
1979.010458392401
 20
450.6934318338942
 11
1979.010458392401
 21
449.1934318338942
 72
     3
 10
1993.510458392401
 20
449.193431833894
 11
-14.5
 21
0.0000000000002274
 40
0.8275862068965517
 50
0.0
 51
180.0
 73
     1
 72
     1
 10
2008.010458392401
 20
449.1934318338937
 11
2008.010458392401
 21
452.1937075777759
 72
     3
 10
1993.510458392401
 20
452.1937075777757
 11
-14.5
 21
-0.0000000000002274
 40
0.8275862068965517
 50
180.0
 51
223.1776541619206
 73
     1
 72
     3
 10
1993.510458392401
 20
470.1931560900127
 11
-14.5
 21
0.0000000000002274
 40
0.8275862068965517
 50
136.8223458380367
 51
180.0
 73
     1
 72
     1
 10
2008.010458392401
 20
470.1931560900125
 11
2008.010458392401
 21
473.1909284088653
 97
        0
 92
        7
 72
     0
 73
     1
 93
        8
 10
2110.510458392413
 20
485.1934318338942
 10
2079.010458392414
 20
485.193431833894
 10
2079.010458392413
 20
479.193431833894
 10
2091.760458392413
 20
479.1934318338942
 10
2091.760458392414
 20
437.1934318338944
 10
2097.760458392414
 20
437.1934318338944
 10
2097.760458392413
 20
479.1934318338942
 10
2110.510458392413
 20
479.1934318338942
 97
        0
 92
        7
 72
     0
 73
     1
 93
        6
 10
2141.510458392414
 20
485.193431833894
 10
2135.510458392413
 20
485.193431833894
 10
2135.510458392413
 20
437.1934318338944
 10
2162.010458392414
 20
437.1934318338944
 10
2162.010458392414
 20
443.1934318338942
 10
2141.510458392413
 20
443.1934318338944
 97
        0
 92
        5
 93
        8
 72
     1
 10
2171.010458392414
 20
485.1934318338942
 11
2165.010458392414
 21
485.1934318338944
 72
     1
 10
2165.010458392414
 20
485.1934318338944
 11
2165.010458392414
 21
449.1934318339015
 72
     3
 10
2179.510458392414
 20
449.193431833894
 11
-14.5
 21
0.0000000000002274
 40
0.8275862068965517
 50
0.0
 51
180.0
 73
     1
 72
     1
 10
2194.010458392414
 20
449.193431833894
 11
2194.010458392414
 21
485.193431833894
 72
     1
 10
2194.010458392414
 20
485.193431833894
 11
2188.010458392414
 21
485.1934318338942
 72
     1
 10
2188.010458392414
 20
485.1934318338942
 11
2188.010458392414
 21
448.8893364534606
 72
     4
 94
        3
 73
     0
 74
     0
 95
       32
 96
       28
 40
0.0
 40
0.0
 40
0.0
 40
0.0
 40
0.0183321218771289
 40
0.0183321218771289
 40
0.2786036360383961
 40
0.2786036360383961
 40
0.5388751501996634
 40
0.5388751501996634
 40
0.7991466643609307
 40
0.7991466643609307
 40
1.059418178522197
 40
1.059418178522197
 40
1.319689692683465
 40
1.319689692683465
 40
1.579961206844732
 40
1.579961206844732
 40
1.840232721006
 40
1.840232721006
 40
2.100504235167267
 40
2.100504235167267
 40
2.360775749328535
 40
2.360775749328535
 40
2.621047263489802
 40
2.621047263489802
 40
2.88131877765107
 40
2.88131877765107
 40
3.141590291812337
 40
3.141590291812337
 40
3.141590291812337
 40
3.141590291812337
 10
2188.010480251822
 20
449.193431833894
 10
2188.01046675415
 20
449.1643989131741
 10
2188.01013679412
 20
449.1353688935873
 10
2188.00036118243
 20
448.6941644932506
 10
2187.927913364782
 20
448.2797482575074
 10
2187.633117625926
 20
447.4268463583634
 10
2187.409103891586
 20
446.9878833633942
 10
2186.775070892637
 20
446.1102905828129
 10
2186.364178241019
 20
445.6726822753583
 10
2185.353367188969
 20
444.8588444480178
 10
2184.753633745037
 20
444.4835751511168
 10
2183.404750295958
 20
443.8571354217456
 10
2182.656111170143
 20
443.6064179435138
 10
2181.078584556756
 20
443.271522938176
 10
2180.250188196706
 20
443.1874880140965
 10
2178.595922423645
 20
443.2000387555181
 10
2177.770512035774
 20
443.2966201633862
 10
2176.204442694185
 20
443.6545315910645
 10
2175.464278801101
 20
443.9157043525756
 10
2174.136310144101
 20
444.5592045006701
 10
2173.549010428079
 20
444.9410477090784
 10
2172.564430467744
 20
445.7633766484861
 10
2172.167285646822
 20
446.2028691562648
 10
2171.559119373019
 20
447.0808123883305
 10
2171.347133335124
 20
447.5182896696187
 10
2171.073625285725
 20
448.3682372559075
 10
2171.010458392414
 20
448.7813352698055
 10
2171.010458392414
 20
449.1934318338945
 97
        0
 72
     1
 10
2171.010458392414
 20
449.1934318338945
 11
2171.010458392414
 21
485.1934318338942
 97
        0
 92
        7
 72
     0
 73
     1
 93
       12
 10
2203.894543298921
 20
485.193431833894
 10
2197.010458392414
 20
485.193431833894
 10
2210.068415939161
 20
461.1934318338938
 10
2197.010458392414
 20
437.193431833894
 10
2203.894543298921
 20
437.1934318338937
 10
2213.510458392414
 20
454.8670964493317
 10
2223.126373485906
 20
437.1934318338937
 10
2230.010458392413
 20
437.193431833894
 10
2216.952500845668
 20
461.1934318338933
 10
2230.010458392414
 20
485.193431833894
 10
2223.126373485907
 20
485.193431833894
 10
2213.510458392414
 20
467.5197672184558
 97
        0
 92
        7
 72
     0
 73
     1
 93
       12
 10
2239.010458392414
 20
479.193431833894
 10
2260.510458392414
 20
479.193431833894
 10
2260.510458392414
 20
485.193431833894
 10
2233.010458392414
 20
485.193431833894
 10
2233.010458392414
 20
437.1934318338944
 10
2260.510458392414
 20
437.1934318338942
 10
2260.510458392414
 20
443.1934318338942
 10
2239.010458392414
 20
443.1934318338944
 10
2239.010458392414
 20
458.193431833894
 10
2259.510458392414
 20
458.193431833894
 10
2259.510458392414
 20
464.193431833894
 10
2239.010458392414
 20
464.193431833894
 97
        0
 75
     1
 76
     1
 47
0.4513303230038953
 98
       10
 10
2029.967625201813
 20
481.1255754117535
 10
2029.967625201813
 20
481.1255754117535
 10
2051.199247998601
 20
479.3202542274662
 10
2051.199247998601
 20
479.3202542274662
 10
2000.153007216173
 20
482.0282354076773
 10
2093.210757597406
 20
483.3822265940029
 10
2139.739629965977
 20
478.8689230370646
 10
2169.554250773662
 20
472.5502994882783
 10
2211.565757550422
 20
469.3909871176656
 10
2235.056063143116
 20
469.3909871176656
450
        0
451
        0
460
0.0
461
0.0
452
        0
462
1.0
453
        2
463
0.0
 63
     5
421
      255
463
1.0
 63
     2
421
 16776960
470
LINEAR
1001
GradientColor1ACI
1070
     5
1001
GradientColor2ACI
1070
     2
1001
ACAD
1010
0.0
1020
0.0
1030
0.0
  0
DIMENSION
  5
B2D
330
1F
100
AcDbEntity
  8
0
100
AcDbDimension
280
     0
  2
*D7
 10
2801.010458392413
 20
404.3393155593771
 30
0.0
 11
2351.010458392407
 21
411.945045436594
 31
0.0
 70
    32
  1
<> mm
 71
     5
 42
900.0000000000115
 73
     0
 74
     0
 75
     0
  3
ISO-25
100
AcDbAlignedDimension
 13
1901.010458392401
 23
437.1934318338942
 33
0.0
 14
2801.010458392413
 24
437.1934318338942
 34
0.0
100
AcDbRotatedDimension
  0
ENDSEC
  0
SECTION
  2
OBJECTS
  0
DICTIONARY
  5
C
330
0
100
AcDbDictionary
281
     1
  3
ACAD_COLOR
350
6B
  3
ACAD_GROUP
350
D
  3
ACAD_LAYOUT
350
1A
  3
ACAD_MATERIAL
350
6A
  3
ACAD_MLEADERSTYLE
350
12D
  3
ACAD_MLINESTYLE
350
17
  3
ACAD_PLOTSETTINGS
350
19
  3
ACAD_PLOTSTYLENAME
350
E
  3
ACAD_SCALELIST
350
10C
  3
ACAD_TABLESTYLE
350
7E
  3
ACAD_VISUALSTYLE
350
EF
  3
ACDB_RECOMPOSE_DATA
350
BA1
  3
AcDbVariableDictionary
350
5E
  0
DICTIONARY
  5
1FF
330
2
100
AcDbDictionary
280
     1
281
     1
  3
ACAD_LAYERSTATES
360
200
  0
DICTIONARY
  5
13C
330
10
100
AcDbDictionary
280
     1
281
     1
  0
DICTIONARY
  5
1CE
330
1F
100
AcDbDictionary
280
     1
281
     1
  3
ACAD_SORTENTS
360
222
  0
DICTIONARY
  5
392
330
385
100
AcDbDictionary
280
     1
281
     1
  3
ACAD_DIMASSOC
360
39C
  0
DICTIONARY
  5
6B
102
{ACAD_REACTORS
330
C
102
}
330
C
100
AcDbDictionary
281
     1
  3
RAL CLASSIC$RAL 7006
350
611
  3
RAL CLASSIC$RAL 8011
350
701
  0
DICTIONARY
  5
D
102
{ACAD_REACTORS
330
C
102
}
330
C
100
AcDbDictionary
281
     1
  0
DICTIONARY
  5
1A
102
{ACAD_REACTORS
330
C
102
}
330
C
100
AcDbDictionary
281
     1
  3
Layout1
350
D3
  3
Layout2
350
D7
  3
Model
350
22
  0
DICTIONARY
  5
6A
102
{ACAD_REACTORS
330
C
102
}
330
C
100
AcDbDictionary
281
     1
  3
ByBlock
350
ED
  3
ByLayer
350
EC
  3
Global
350
EE
  0
DICTIONARY
  5
12D
102
{ACAD_REACTORS
330
C
102
}
330
C
100
AcDbDictionary
281
     1
  3
Annotative
350
13B
  3
Standard
350
12E
  0
DICTIONARY
  5
17
102
{ACAD_REACTORS
330
C
102
}
330
C
100
AcDbDictionary
281
     1
  3
Standard
350
18
  0
DICTIONARY
  5
19
102
{ACAD_REACTORS
330
C
102
}
330
C
100
AcDbDictionary
281
     1
  0
ACDBDICTIONARYWDFLT
  5
E
102
{ACAD_REACTORS
330
C
102
}
330
C
100
AcDbDictionary
281
     1
  3
Normal
350
F
100
AcDbDictionaryWithDefault
340
F
  0
DICTIONARY
  5
10C
102
{ACAD_REACTORS
330
C
102
}
330
C
100
AcDbDictionary
281
     1
  3
A0
350
10D
  3
A1
350
1BE
  3
A2
350
1BF
  3
A3
350
1C0
  3
A4
350
1C1
  3
A5
350
1C2
  3
A6
350
1C3
  3
A7
350
1C4
  3
A8
350
1C5
  3
A9
350
1C6
  3
B0
350
1C7
  3
B1
350
1C8
  3
B2
350
1C9
  3
B3
350
1CA
  3
B4
350
1CB
  3
B5
350
1CC
  3
B6
350
1CD
  0
DICTIONARY
  5
7E
102
{ACAD_REACTORS
330
C
102
}
330
C
100
AcDbDictionary
281
     1
  3
Standard
350
7F
  0
DICTIONARY
  5
EF
102
{ACAD_REACTORS
330
C
102
}
330
C
100
AcDbDictionary
281
     1
  3
2dWireframe
350
F5
  3
Basic
350
F4
  3
Brighten
350
FB
  3
ColorChange
350
FF
  3
Conceptual
350
F8
  3
Dim
350
FA
  3
EdgeColorOff
350
1E6
  3
Facepattern
350
FE
  3
Flat
350
F0
  3
FlatWithEdges
350
F1
  3
Gouraud
350
F2
  3
GouraudWithEdges
350
F3
  3
Hidden
350
F7
  3
JitterOff
350
1E4
  3
Linepattern
350
FD
  3
OverhangOff
350
1E5
  3
Realistic
350
F9
  3
Shaded
350
1F3
  3
Shaded with edges
350
1F2
  3
Shades of Gray
350
1EF
  3
Sketchy
350
1F0
  3
Thicken
350
FC
  3
Wireframe
350
F6
  3
X-Ray
350
1F1
  0
XRECORD
  5
BA1
102
{ACAD_REACTORS
330
C
102
}
330
C
100
AcDbXrecord
280
     1
 90
        1
330
7F
330
422
330
75D
  0
DICTIONARY
  5
5E
102
{ACAD_REACTORS
330
C
102
}
330
C
100
AcDbDictionary
281
     1
  3
CANNOSCALE
350
146
  3
CMLEADERSTYLE
350
145
  3
CTABLESTYLE
350
84
  3
DIMASSOC
350
5F
  3
HIDETEXT
350
63
  3
LAYEREVAL
350
1AE
  3
LAYERNOTIFY
350
1AF
  0
DICTIONARY
  5
200
102
{ACAD_REACTORS
330
1FF
102
}
330
1FF
100
AcDbDictionary
281
     1
  0
SORTENTSTABLE
  5
222
102
{ACAD_REACTORS
330
1CE
102
}
330
1CE
100
AcDbSortentsTable
330
1F
331
254
  5
275
331
250
  5
259
331
382
  5
3B6
331
3FC
  5
612
331
726
  5
726
331
37E
  5
3B4
331
3F8
  5
5EF
331
7CC
  5
846
331
3BD
  5
3EB
331
3B9
  5
3E5
331
3F4
  5
573
331
706
  5
706
331
857
  5
8AE
331
78D
  5
79D
331
3F0
  5
511
331
287
  5
2CC
331
283
  5
2B7
331
2CE
  5
3B3
331
50F
  5
3FB
331
3B5
  5
3E0
331
240
  5
24F
331
2CA
  5
2C5
331
3EC
  5
4F2
331
3B1
  5
3D9
331
27B
  5
2AC
331
2C6
  5
3B0
331
3E8
  5
48F
331
A05
  5
A21
331
7BC
  5
856
331
886
  5
A18
331
2C2
  5
2C4
331
4F3
  5
3D8
331
3E4
  5
42F
331
7B8
  5
83B
331
882
  5
A1B
331
3E0
  5
42B
331
7B4
  5
838
331
87E
  5
A17
331
843
  5
8A6
331
7B0
  5
833
331
277
  5
2A6
331
2BE
  5
25A
331
273
  5
2A4
331
26F
  5
282
331
48B
  5
241
331
3DC
  5
427
331
83F
  5
886
331
2BA
  5
2D0
331
2B6
  5
37F
331
3D8
  5
407
331
7AC
  5
7F9
331
876
  5
A14
331
83B
  5
883
331
3D4
  5
403
331
837
  5
876
331
872
  5
A11
331
3D0
  5
3FF
331
833
  5
871
331
86E
  5
A0F
331
86A
  5
A0A
331
267
  5
27A
331
263
  5
278
331
2AE
  5
2BF
331
2AA
  5
2B8
331
3CC
  5
3FA
331
75D
  5
75D
331
25F
  5
25F
331
2A6
  5
37E
331
3C8
  5
3F6
331
612
  5
6A8
331
79C
  5
7CF
331
866
  5
A09
331
7EB
  5
86C
331
3C4
  5
3F2
331
798
  5
7B9
331
3C0
  5
3EE
331
794
  5
7AE
331
85E
  5
A05
331
790
  5
79F
331
85A
  5
8B2
331
257
  5
25D
331
253
  5
26F
331
385
  5
3D4
331
3FF
  5
6A0
331
24F
  5
254
331
381
  5
3B8
331
3FB
  5
5F2
331
725
  5
725
331
7CF
  5
865
331
3BC
  5
3E9
331
3F7
  5
5EE
331
3B8
  5
3E4
331
3F3
  5
572
331
856
  5
8AC
331
7C3
  5
85D
331
889
  5
A1F
331
286
  5
2B3
331
243
  5
24E
331
2CD
  5
3B2
331
3EF
  5
510
331
3B4
  5
3DF
331
282
  5
2B6
331
27E
  5
2AE
331
2C9
  5
383
331
3EB
  5
4F1
331
3B0
  5
3D7
331
27A
  5
2AA
331
2C5
  5
385
331
3E7
  5
48E
331
84A
  5
8A9
331
885
  5
A1E
331
A04
  5
A20
331
2C1
  5
2C2
331
3E3
  5
42E
331
881
  5
A1A
331
7B3
  5
7FC
331
842
  5
889
331
276
  5
284
331
2BD
  5
381
331
3DF
  5
42A
331
2B9
  5
2C0
331
3DB
  5
426
331
7AF
  5
832
331
2B5
  5
2CB
331
3D7
  5
406
331
7AB
  5
7EC
331
875
  5
A12
331
3D3
  5
402
331
836
  5
881
331
871
  5
A10
331
422
  5
6A7
331
7A3
  5
7EB
331
86D
  5
A0E
331
832
  5
87E
331
869
  5
8A7
331
2AD
  5
2BB
331
3CF
  5
3FE
331
25E
  5
25B
331
3CB
  5
3F9
331
75C
  5
75C
331
79F
  5
7BA
331
25A
  5
26D
331
3C7
  5
3F5
331
79B
  5
7D0
331
3C3
  5
3F1
331
797
  5
7C1
331
861
  5
A08
331
793
  5
7BD
331
85D
  5
8AF
331
7D2
  5
86B
331
859
  5
8B1
331
256
  5
255
331
252
  5
273
331
3FE
  5
69F
331
24E
  5
267
331
380
  5
3B9
331
3FA
  5
5F1
331
724
  5
724
331
7CE
  5
85F
331
3BF
  5
3ED
331
29D
  5
2CE
331
5ED
  5
3D5
331
3F6
  5
575
331
78F
  5
7A7
331
3BB
  5
3E8
331
704
  5
220
331
855
  5
8AA
331
3F2
  5
570
331
700
  5
3D6
331
285
  5
2B0
331
3B7
  5
3E3
331
242
  5
251
331
2CC
  5
2C3
331
3EE
  5
50F
331
3B3
  5
3DD
331
281
  5
2AF
331
27D
  5
2AD
331
3EA
  5
493
331
7BE
  5
85B
331
2C8
  5
2C8
331
279
  5
25E
331
2C4
  5
2C9
331
3E6
  5
48D
331
7BA
  5
843
331
884
  5
A1D
331
849
  5
8A8
331
2C0
  5
382
331
3E2
  5
42D
331
773
  5
773
331
7B6
  5
7F7
331
880
  5
A19
331
87C
  5
A16
331
275
  5
2A7
331
2BC
  5
380
331
3DE
  5
429
331
26D
  5
281
331
2B8
  5
2BD
331
3DA
  5
422
331
7AE
  5
7FD
331
83D
  5
885
331
269
  5
27E
331
2B4
  5
2BA
331
3D6
  5
405
331
3D2
  5
401
331
835
  5
882
331
7A2
  5
7D1
331
86C
  5
A0C
331
831
  5
872
331
2AC
  5
2B9
331
3CE
  5
3FD
331
3CA
  5
3F8
331
79E
  5
7AF
331
259
  5
266
331
3C6
  5
3F4
331
72F
  5
72F
331
405
  5
6A4
331
3C2
  5
3F0
331
796
  5
7CC
331
860
  5
A07
331
401
  5
6A2
331
792
  5
7A9
331
AFE
  5
79A
331
85C
  5
A04
331
7D1
  5
867
331
858
  5
8B0
331
255
  5
269
331
251
  5
268
331
383
  5
3B5
331
3FD
  5
66B
331
727
  5
727
331
24D
  5
252
331
37F
  5
3B7
331
3F9
  5
5F0
331
723
  5
723
331
7CD
  5
84A
331
3BE
  5
3EC
331
3BA
  5
3E7
331
3F5
  5
574
331
78E
  5
7A0
331
3F1
  5
56F
331
703
  5
704
331
AE6
  5
7AC
331
7C1
  5
85C
331
2CF
  5
2CA
331
3B6
  5
3E2
331
241
  5
24D
331
2CB
  5
3B1
331
3ED
  5
4F3
331
3B2
  5
3DB
331
2C7
  5
2C6
331
3E9
  5
490
331
7BD
  5
83D
331
278
  5
264
331
2C3
  5
2C7
331
3E5
  5
48C
331
7B9
  5
857
331
883
  5
A1C
331
3E1
  5
42C
331
7B5
  5
835
331
7B1
  5
836
331
87B
  5
A15
331
2BF
  5
276
331
274
  5
283
331
2BB
  5
2BC
331
3DD
  5
428
331
26C
  5
27F
331
2B7
  5
2CF
331
3D9
  5
408
331
83C
  5
884
331
268
  5
27D
331
3D5
  5
404
331
838
  5
87C
331
3D1
  5
400
331
66B
  5
703
331
830
  5
86E
331
86B
  5
A0B
331
264
  5
25C
331
2AF
  5
2C1
331
260
  5
258
331
2AB
  5
2CD
331
3CD
  5
3FC
331
3C9
  5
3F7
331
79D
  5
7B0
331
7EC
  5
86D
331
408
  5
6A5
331
258
  5
274
331
3C5
  5
3F3
331
60F
  5
3E1
331
799
  5
7CD
331
72E
  5
72E
331
404
  5
6A3
331
3C1
  5
3EF
331
795
  5
7B3
331
85F
  5
A06
331
400
  5
6A1
331
791
  5
7A8
331
85B
  5
8B3
331
7D0
  5
855
  0
DIMASSOC
  5
39C
102
{ACAD_REACTORS
330
392
102
}
330
392
100
AcDbDimAssoc
330
385
 90
        3
 70
     0
 71
     0
  1
AcDbOsnapPointRef
 72
     1
331
382
 73
     2
 91
        0
 40
1.0
 10
0.0
 20
0.0
 30
2.000000000000000E+50
 75
     0
  1
AcDbOsnapPointRef
 72
     6
331
380
 73
     2
 91
        0
 40
1.0
 10
0.0
 20
0.0
 30
0.0
332
26D
 74
     2
 92
        0
 75
     0
  0
DBCOLOR
  5
611
102
{ACAD_REACTORS
330
6B
102
}
330
6B
100
AcDbColor
 62
   251
420
  7696225
430
RAL CLASSIC$RAL 7006
  0
DBCOLOR
  5
701
102
{ACAD_REACTORS
330
6B
102
}
330
6B
100
AcDbColor
 62
    39
420
  5913129
430
RAL CLASSIC$RAL 8011
  0
LAYOUT
  5
D3
102
{ACAD_REACTORS
330
1A
102
}
330
1A
100
AcDbPlotSettings
  1

  2
C:\Documents and Settings\basas\Application Data\Autodesk\AutoCAD 2005\R16.1\enu\plotters\Default Windows System Printer.pc3
  4

  6

 40
0.0
 41
0.0
 42
0.0
 43
0.0
 44
0.0
 45
0.0
 46
0.0
 47
0.0
 48
0.0
 49
0.0
140
0.0
141
0.0
142
1.0
143
1.0
 70
   688
 72
     0
 73
     0
 74
     5
  7

 75
    16
147
1.0
 76
     0
 77
     2
 78
   300
148
0.0
149
0.0
100
AcDbLayout
  1
Layout1
 70
     1
 71
     1
 10
0.0
 20
0.0
 11
12.0
 21
9.0
 12
0.0
 22
0.0
 32
0.0
 14
0.0
 24
0.0
 34
0.0
 15
0.0
 25
0.0
 35
0.0
146
0.0
 13
0.0
 23
0.0
 33
0.0
 16
1.0
 26
0.0
 36
0.0
 17
0.0
 27
1.0
 37
0.0
 76
     0
330
D2
  0
LAYOUT
  5
D7
102
{ACAD_REACTORS
330
1A
102
}
330
1A
100
AcDbPlotSettings
  1

  2
C:\Documents and Settings\basas\Application Data\Autodesk\AutoCAD 2005\R16.1\enu\plotters\Default Windows System Printer.pc3
  4

  6

 40
0.0
 41
0.0
 42
0.0
 43
0.0
 44
0.0
 45
0.0
 46
0.0
 47
0.0
 48
0.0
 49
0.0
140
0.0
141
0.0
142
1.0
143
1.0
 70
   688
 72
     0
 73
     0
 74
     5
  7

 75
    16
147
1.0
 76
     0
 77
     2
 78
   300
148
0.0
149
0.0
100
AcDbLayout
  1
Layout2
 70
     1
 71
     2
 10
0.0
 20
0.0
 11
12.0
 21
9.0
 12
0.0
 22
0.0
 32
0.0
 14
0.0
 24
0.0
 34
0.0
 15
0.0
 25
0.0
 35
0.0
146
0.0
 13
0.0
 23
0.0
 33
0.0
 16
1.0
 26
0.0
 36
0.0
 17
0.0
 27
1.0
 37
0.0
 76
     0
330
D6
  0
LAYOUT
  5
22
102
{ACAD_XDICTIONARY
360
205
102
}
102
{ACAD_REACTORS
330
1A
102
}
330
1A
100
AcDbPlotSettings
  1

  2
none_device
  4
ISO_A4_(210.00_x_297.00_MM)
  6

 40
7.5
 41
20.0
 42
7.5
 43
20.0
 44
210.0
 45
297.0
 46
11.54999923706054
 47
-13.65000009536743
 48
0.0
 49
0.0
140
0.0
141
0.0
142
1.0
143
8.704084754739808
 70
 11952
 72
     1
 73
     0
 74
     0
  7

 75
     0
147
0.1148885871608098
 76
     0
 77
     2
 78
   300
148
0.0
149
0.0
100
AcDbLayout
  1
Model
 70
     1
 71
     0
 10
0.0
 20
0.0
 11
12.0
 21
9.0
 12
0.0
 22
0.0
 32
0.0
 14
0.0
 24
0.0
 34
0.0
 15
0.0
 25
0.0
 35
0.0
146
0.0
 13
0.0
 23
0.0
 33
0.0
 16
1.0
 26
0.0
 36
0.0
 17
0.0
 27
1.0
 37
0.0
 76
     0
330
1F
331
EA
1001
ACAD_PSEXT
1000
None
1000
None
1000
Not applicable
1000
The layout will not be plotted unless a new plotter configuration name is selected.
1070
     0
  0
MATERIAL
  5
ED
102
{ACAD_XDICTIONARY
360
1F9
102
}
102
{ACAD_REACTORS
330
6A
102
}
330
6A
100
AcDbMaterial
  1
ByBlock
 94
       63
  0
MATERIAL
  5
EC
102
{ACAD_XDICTIONARY
360
1F7
102
}
102
{ACAD_REACTORS
330
6A
102
}
330
6A
100
AcDbMaterial
  1
ByLayer
 94
       63
  0
MATERIAL
  5
EE
102
{ACAD_XDICTIONARY
360
173
102
}
102
{ACAD_REACTORS
330
6A
102
}
330
6A
100
AcDbMaterial
  1
Global
 43
0.0007999999797903
 43
0.0
 43
0.0
 43
0.0
 43
0.0
 43
0.0007999999797903
 43
0.0
 43
0.0
 43
0.0
 43
0.0
 43
1.0
 43
0.0
 43
0.0
 43
0.0
 43
0.0
 43
1.0
 49
0.0007999999797903
 49
0.0
 49
0.0
 49
0.0
 49
0.0
 49
0.0007999999797903
 49
0.0
 49
0.0
 49
0.0
 49
0.0
 49
1.0
 49
0.0
 49
0.0
 49
0.0
 49
0.0
 49
1.0
142
0.0007999999797903
142
0.0
142
0.0
142
0.0
142
0.0
142
0.0007999999797903
142
0.0
142
0.0
142
0.0
142
0.0
142
1.0
142
0.0
142
0.0
142
0.0
142
0.0
142
1.0
144
0.0007999999797903
144
0.0
144
0.0
144
0.0
144
0.0
144
0.0007999999797903
144
0.0
144
0.0
144
0.0
144
0.0
144
1.0
144
0.0
144
0.0
144
0.0
144
0.0
144
1.0
 94
       63
1001
ACAD
1070
    -1
1070
     3
1070
     0
1000

1071
        0
1070
     0
  0
MLEADERSTYLE
  5
13B
102
{ACAD_REACTORS
330
12D
102
}
330
12D
100
AcDbMLeaderStyle
179
     2
170
     2
171
     1
172
     0
 90
        2
 40
0.0
 41
0.0
173
     1
 91
-1056964608
340
14
 92
       -2
290
     1
 42
2.0
291
     1
 43
8.0
  3
Standard
 44
4.0
300

342
11
174
     1
178
     1
175
     1
176
     0
 93
-1056964608
 45
4.0
292
     0
297
     0
 46
4.0
 94
-1056964608
 47
1.0
 49
1.0
140
1.0
293
     1
141
0.0
294
     1
177
     0
142
1.0
295
     0
296
     1
143
3.75
271
     0
272
     9
273
     9
  0
MLEADERSTYLE
  5
12E
102
{ACAD_REACTORS
330
12D
102
}
330
12D
100
AcDbMLeaderStyle
179
     2
170
     2
171
     1
172
     0
 90
        2
 40
0.0
 41
0.0
173
     1
 91
-1056964608
340
14
 92
       -2
290
     1
 42
2.0
291
     1
 43
8.0
  3
Standard
 44
4.0
300

342
11
174
     1
178
     1
175
     1
176
     0
 93
-1056964608
 45
4.0
292
     0
297
     0
 46
4.0
 94
-1056964608
 47
1.0
 49
1.0
140
1.0
293
     1
141
0.0
294
     1
177
     0
142
1.0
295
     0
296
     0
143
3.75
271
     0
272
     9
273
     9
  0
MLINESTYLE
  5
18
102
{ACAD_REACTORS
330
17
102
}
330
17
100
AcDbMlineStyle
  2
STANDARD
 70
     0
  3

 62
   256
 51
90.0
 52
90.0
 71
     2
 49
0.5
 62
   256
  6
BYLAYER
 49
-0.5
 62
   256
  6
BYLAYER
  0
ACDBPLACEHOLDER
  5
F
102
{ACAD_REACTORS
330
E
102
}
330
E
  0
SCALE
  5
10D
102
{ACAD_REACTORS
330
10C
102
}
330
10C
100
AcDbScale
 70
     0
300
1:1
140
1.0
141
1.0
290
     1
  0
SCALE
  5
1BE
102
{ACAD_REACTORS
330
10C
102
}
330
10C
100
AcDbScale
 70
     0
300
1:2
140
1.0
141
2.0
290
     0
  0
SCALE
  5
1BF
102
{ACAD_REACTORS
330
10C
102
}
330
10C
100
AcDbScale
 70
     0
300
1:4
140
1.0
141
4.0
290
     0
  0
SCALE
  5
1C0
102
{ACAD_REACTORS
330
10C
102
}
330
10C
100
AcDbScale
 70
     0
300
1:5
140
1.0
141
5.0
290
     0
  0
SCALE
  5
1C1
102
{ACAD_REACTORS
330
10C
102
}
330
10C
100
AcDbScale
 70
     0
300
1:8
140
1.0
141
8.0
290
     0
  0
SCALE
  5
1C2
102
{ACAD_REACTORS
330
10C
102
}
330
10C
100
AcDbScale
 70
     0
300
1:10
140
1.0
141
10.0
290
     0
  0
SCALE
  5
1C3
102
{ACAD_REACTORS
330
10C
102
}
330
10C
100
AcDbScale
 70
     0
300
1:16
140
1.0
141
16.0
290
     0
  0
SCALE
  5
1C4
102
{ACAD_REACTORS
330
10C
102
}
330
10C
100
AcDbScale
 70
     0
300
1:20
140
1.0
141
20.0
290
     0
  0
SCALE
  5
1C5
102
{ACAD_REACTORS
330
10C
102
}
330
10C
100
AcDbScale
 70
     0
300
1:30
140
1.0
141
30.0
290
     0
  0
SCALE
  5
1C6
102
{ACAD_REACTORS
330
10C
102
}
330
10C
100
AcDbScale
 70
     0
300
1:40
140
1.0
141
40.0
290
     0
  0
SCALE
  5
1C7
102
{ACAD_REACTORS
330
10C
102
}
330
10C
100
AcDbScale
 70
     0
300
1:50
140
1.0
141
50.0
290
     0
  0
SCALE
  5
1C8
102
{ACAD_REACTORS
330
10C
102
}
330
10C
100
AcDbScale
 70
     0
300
1:100
140
1.0
141
100.0
290
     0
  0
SCALE
  5
1C9
102
{ACAD_REACTORS
330
10C
102
}
330
10C
100
AcDbScale
 70
     0
300
2:1
140
2.0
141
1.0
290
     0
  0
SCALE
  5
1CA
102
{ACAD_REACTORS
330
10C
102
}
330
10C
100
AcDbScale
 70
     0
300
4:1
140
4.0
141
1.0
290
     0
  0
SCALE
  5
1CB
102
{ACAD_REACTORS
330
10C
102
}
330
10C
100
AcDbScale
 70
     0
300
8:1
140
8.0
141
1.0
290
     0
  0
SCALE
  5
1CC
102
{ACAD_REACTORS
330
10C
102
}
330
10C
100
AcDbScale
 70
     0
300
10:1
140
10.0
141
1.0
290
     0
  0
SCALE
  5
1CD
102
{ACAD_REACTORS
330
10C
102
}
330
10C
100
AcDbScale
 70
     0
300
100:1
140
100.0
141
1.0
290
     0
  0
TABLESTYLE
  5
7F
102
{ACAD_XDICTIONARY
360
162
102
}
102
{ACAD_REACTORS
330
7E
102
}
330
7E
100
AcDbTableStyle
280
     0
  3
Standard
 70
     0
 71
     0
 40
1.5
 41
1.5
280
     0
281
     0
  7
Standard
140
4.5
170
     2
 62
     0
 63
     7
283
     0
 90
      512
 91
        0
  1

274
    -2
284
     1
 64
     0
275
    -2
285
     1
 65
     0
276
    -2
286
     1
 66
     0
277
    -2
287
     1
 67
     0
278
    -2
288
     1
 68
     0
279
    -2
289
     1
 69
     0
  7
Standard
140
6.0
170
     5
 62
     0
 63
     7
283
     0
 90
      512
 91
        0
  1

274
    -2
284
     1
 64
     0
275
    -2
285
     1
 65
     0
276
    -2
286
     1
 66
     0
277
    -2
287
     1
 67
     0
278
    -2
288
     1
 68
     0
279
    -2
289
     1
 69
     0
  7
Standard
140
4.5
170
     5
 62
     0
 63
     7
283
     0
 90
      512
 91
        0
  1

274
    -2
284
     1
 64
     0
275
    -2
285
     1
 65
     0
276
    -2
286
     1
 66
     0
277
    -2
287
     1
 67
     0
278
    -2
288
     1
 68
     0
279
    -2
289
     1
 69
     0
  0
VISUALSTYLE
  5
F5
102
{ACAD_REACTORS
330
EF
102
}
330
EF
100
AcDbVisualStyle
  2
2dWireframe
 70
     4
177
     2
291
     0
 71
     0
176
     1
 72
     2
176
     1
 73
     1
176
     1
 90
        0
176
     1
 40
0.6
176
     1
 41
30.0
176
     1
 63
     7
421
 16777215
176
     1
 74
     1
176
     1
 91
        4
176
     1
 64
     7
176
     1
 65
   257
176
     1
 75
     1
176
     1
175
     1
176
     1
 42
1.0
176
     1
 92
        0
176
     1
 66
   257
176
     1
 43
1.0
176
     1
 76
     1
176
     1
 77
     6
176
     1
 78
     2
176
     1
 67
     7
176
     1
 79
     5
176
     1
170
     0
176
     1
171
     0
176
     1
290
     0
176
     1
 93
        1
176
     1
 44
0.0
176
     1
173
     0
176
     1
  0
VISUALSTYLE
  5
F4
102
{ACAD_REACTORS
330
EF
102
}
330
EF
100
AcDbVisualStyle
  2
Basic
 70
     7
177
     2
291
     1
 71
     1
176
     1
 72
     0
176
     1
 73
     1
176
     1
 90
        0
176
     1
 40
0.6
176
     1
 41
30.0
176
     1
 63
     7
421
 16777215
176
     1
 74
     0
176
     1
 91
        4
176
     1
 64
     7
176
     1
 65
   257
176
     1
 75
     1
176
     1
175
     1
176
     1
 42
1.0
176
     1
 92
        8
176
     1
 66
     7
176
     1
 43
1.0
176
     1
 76
     1
176
     1
 77
     6
176
     1
 78
     2
176
     1
 67
     7
176
     1
 79
     5
176
     1
170
     0
176
     1
171
     0
176
     1
290
     0
176
     1
 93
        1
176
     1
 44
0.0
176
     1
173
     0
176
     1
  0
VISUALSTYLE
  5
FB
102
{ACAD_REACTORS
330
EF
102
}
330
EF
100
AcDbVisualStyle
  2
Brighten
 70
    12
177
     2
291
     1
 71
     2
176
     1
 72
     2
176
     1
 73
     1
176
     1
 90
        0
176
     1
 40
0.6
176
     1
 41
30.0
176
     1
 63
     7
421
 16777215
176
     1
 74
     1
176
     1
 91
        4
176
     1
 64
     7
176
     1
 65
   257
176
     1
 75
     1
176
     1
175
     1
176
     1
 42
1.0
176
     1
 92
        8
176
     1
 66
     7
176
     1
 43
1.0
176
     1
 76
     1
176
     1
 77
     6
176
     1
 78
     2
176
     1
 67
     7
176
     1
 79
     5
176
     1
170
     0
176
     1
171
     0
176
     1
290
     0
176
     1
 93
        1
176
     1
 44
50.0
176
     1
173
     0
176
     1
  0
VISUALSTYLE
  5
FF
102
{ACAD_REACTORS
330
EF
102
}
330
EF
100
AcDbVisualStyle
  2
ColorChange
 70
    16
177
     2
291
     1
 71
     2
176
     1
 72
     2
176
     1
 73
     3
176
     1
 90
        0
176
     1
 40
0.6
176
     1
 41
30.0
176
     1
 63
     8
421
  8421504
176
     1
 74
     1
176
     1
 91
        4
176
     1
 64
     7
176
     1
 65
   257
176
     1
 75
     1
176
     1
175
     1
176
     1
 42
1.0
176
     1
 92
        8
176
     1
 66
     8
424
  8421504
176
     1
 43
1.0
176
     1
 76
     1
176
     1
 77
     6
176
     1
 78
     2
176
     1
 67
     7
176
     1
 79
     5
176
     1
170
     0
176
     1
171
     0
176
     1
290
     0
176
     1
 93
        1
176
     1
 44
0.0
176
     1
173
     0
176
     1
  0
VISUALSTYLE
  5
F8
102
{ACAD_REACTORS
330
EF
102
}
330
EF
100
AcDbVisualStyle
  2
Conceptual
 70
     9
177
     2
291
     0
 71
     3
176
     1
 72
     2
176
     1
 73
     1
176
     1
 90
        0
176
     1
 40
0.6
176
     1
 41
30.0
176
     1
 63
     7
421
 16777215
176
     1
 74
     2
176
     1
 91
        2
176
     1
 64
     7
176
     1
 65
   257
176
     1
 75
     1
176
     1
175
     1
176
     1
 42
40.0
176
     1
 92
        8
176
     1
 66
     7
176
     1
 43
1.0
176
     1
 76
     1
176
     1
 77
     6
176
     1
 78
     2
176
     1
 67
     7
176
     1
 79
     3
176
     1
170
     0
176
     1
171
     0
176
     1
290
     0
176
     1
 93
        1
176
     1
 44
0.0
176
     1
173
     0
176
     1
  0
VISUALSTYLE
  5
FA
102
{ACAD_REACTORS
330
EF
102
}
330
EF
100
AcDbVisualStyle
  2
Dim
 70
    11
177
     2
291
     1
 71
     2
176
     1
 72
     2
176
     1
 73
     1
176
     1
 90
        0
176
     1
 40
0.6
176
     1
 41
30.0
176
     1
 63
     7
421
 16777215
176
     1
 74
     1
176
     1
 91
        4
176
     1
 64
     7
176
     1
 65
   257
176
     1
 75
     1
176
     1
175
     1
176
     1
 42
1.0
176
     1
 92
        8
176
     1
 66
     7
176
     1
 43
1.0
176
     1
 76
     1
176
     1
 77
     6
176
     1
 78
     2
176
     1
 67
     7
176
     1
 79
     5
176
     1
170
     0
176
     1
171
     0
176
     1
290
     0
176
     1
 93
        1
176
     1
 44
-50.0
176
     1
173
     0
176
     1
  0
VISUALSTYLE
  5
1E6
102
{ACAD_REACTORS
330
EF
102
}
330
EF
100
AcDbVisualStyle
  2
EdgeColorOff
 70
    22
177
     2
291
     1
 71
     2
176
     0
 72
     2
176
     0
 73
     0
176
     0
 90
        0
176
     0
 40
0.6
176
     0
 41
30.0
176
     0
 63
     7
421
 16777215
176
     0
 74
     1
176
     0
 91
        4
176
     0
 64
     7
176
     0
 65
   257
176
     0
 75
     1
176
     0
175
     1
176
     0
 42
1.0
176
     0
 92
        8
176
     2
 66
     7
176
     0
 43
1.0
176
     0
 76
     1
176
     0
 77
     6
176
     0
 78
     2
176
     0
 67
     7
176
     0
 79
     5
176
     0
170
     0
176
     0
171
     0
176
     0
290
     0
176
     0
 93
        1
176
     0
 44
0.0
176
     0
173
     0
176
     0
  0
VISUALSTYLE
  5
FE
102
{ACAD_REACTORS
330
EF
102
}
330
EF
100
AcDbVisualStyle
  2
Facepattern
 70
    15
177
     2
291
     1
 71
     2
176
     1
 72
     2
176
     1
 73
     1
176
     1
 90
        0
176
     1
 40
0.6
176
     1
 41
30.0
176
     1
 63
     7
421
 16777215
176
     1
 74
     1
176
     1
 91
        4
176
     1
 64
     7
176
     1
 65
   257
176
     1
 75
     1
176
     1
175
     1
176
     1
 42
1.0
176
     1
 92
        8
176
     1
 66
     7
176
     1
 43
1.0
176
     1
 76
     1
176
     1
 77
     6
176
     1
 78
     2
176
     1
 67
     7
176
     1
 79
     5
176
     1
170
     0
176
     1
171
     0
176
     1
290
     0
176
     1
 93
        1
176
     1
 44
0.0
176
     1
173
     0
176
     1
  0
VISUALSTYLE
  5
F0
102
{ACAD_REACTORS
330
EF
102
}
330
EF
100
AcDbVisualStyle
  2
Flat
 70
     0
177
     2
291
     1
 71
     2
176
     1
 72
     1
176
     1
 73
     1
176
     1
 90
        2
176
     1
 40
0.6
176
     1
 41
30.0
176
     1
 63
     7
421
 16777215
176
     1
 74
     0
176
     1
 91
        0
176
     1
 64
     7
176
     1
 65
   257
176
     1
 75
     1
176
     1
175
     1
176
     1
 42
1.0
176
     1
 92
        8
176
     1
 66
     7
176
     1
 43
1.0
176
     1
 76
     1
176
     1
 77
     6
176
     1
 78
     2
176
     1
 67
     7
176
     1
 79
     5
176
     1
170
     0
176
     1
171
     0
176
     1
290
     0
176
     1
 93
       13
176
     1
 44
0.0
176
     1
173
     0
176
     1
  0
VISUALSTYLE
  5
F1
102
{ACAD_REACTORS
330
EF
102
}
330
EF
100
AcDbVisualStyle
  2
FlatWithEdges
 70
     1
177
     2
291
     1
 71
     2
176
     1
 72
     1
176
     1
 73
     1
176
     1
 90
        2
176
     1
 40
0.6
176
     1
 41
30.0
176
     1
 63
     7
421
 16777215
176
     1
 74
     1
176
     1
 91
        0
176
     1
 64
     7
176
     1
 65
   257
176
     1
 75
     1
176
     1
175
     1
176
     1
 42
1.0
176
     1
 92
        0
176
     1
 66
   257
176
     1
 43
1.0
176
     1
 76
     1
176
     1
 77
     6
176
     1
 78
     2
176
     1
 67
     7
176
     1
 79
     5
176
     1
170
     0
176
     1
171
     0
176
     1
290
     0
176
     1
 93
       13
176
     1
 44
0.0
176
     1
173
     0
176
     1
  0
VISUALSTYLE
  5
F2
102
{ACAD_REACTORS
330
EF
102
}
330
EF
100
AcDbVisualStyle
  2
Gouraud
 70
     2
177
     2
291
     1
 71
     2
176
     1
 72
     2
176
     1
 73
     1
176
     1
 90
        2
176
     1
 40
0.6
176
     1
 41
30.0
176
     1
 63
     7
421
 16777215
176
     1
 74
     0
176
     1
 91
        0
176
     1
 64
     7
176
     1
 65
   257
176
     1
 75
     1
176
     1
175
     1
176
     1
 42
1.0
176
     1
 92
        0
176
     1
 66
     7
176
     1
 43
1.0
176
     1
 76
     1
176
     1
 77
     6
176
     1
 78
     2
176
     1
 67
     7
176
     1
 79
     5
176
     1
170
     0
176
     1
171
     0
176
     1
290
     0
176
     1
 93
       13
176
     1
 44
0.0
176
     1
173
     0
176
     1
  0
VISUALSTYLE
  5
F3
102
{ACAD_REACTORS
330
EF
102
}
330
EF
100
AcDbVisualStyle
  2
GouraudWithEdges
 70
     3
177
     2
291
     1
 71
     2
176
     1
 72
     2
176
     1
 73
     1
176
     1
 90
        2
176
     1
 40
0.6
176
     1
 41
30.0
176
     1
 63
     7
421
 16777215
176
     1
 74
     1
176
     1
 91
        0
176
     1
 64
     7
176
     1
 65
   257
176
     1
 75
     1
176
     1
175
     1
176
     1
 42
1.0
176
     1
 92
        0
176
     1
 66
   257
176
     1
 43
1.0
176
     1
 76
     1
176
     1
 77
     6
176
     1
 78
     2
176
     1
 67
     7
176
     1
 79
     5
176
     1
170
     0
176
     1
171
     0
176
     1
290
     0
176
     1
 93
       13
176
     1
 44
0.0
176
     1
173
     0
176
     1
  0
VISUALSTYLE
  5
F7
102
{ACAD_REACTORS
330
EF
102
}
330
EF
100
AcDbVisualStyle
  2
Hidden
 70
     6
177
     2
291
     0
 71
     1
176
     1
 72
     2
176
     1
 73
     2
176
     1
 90
        0
176
     1
 40
0.6
176
     1
 41
30.0
176
     1
 63
     7
421
 16777215
176
     1
 74
     2
176
     1
 91
        2
176
     1
 64
     7
176
     1
 65
   257
176
     1
 75
     2
176
     1
175
     1
176
     1
 42
40.0
176
     1
 92
        0
176
     1
 66
   257
176
     1
 43
1.0
176
     1
 76
     1
176
     1
 77
     6
176
     1
 78
     2
176
     1
 67
     7
176
     1
 79
     3
176
     1
170
     0
176
     1
171
     0
176
     1
290
     0
176
     1
 93
        1
176
     1
 44
0.0
176
     1
173
     0
176
     1
  0
VISUALSTYLE
  5
1E4
102
{ACAD_REACTORS
330
EF
102
}
330
EF
100
AcDbVisualStyle
  2
JitterOff
 70
    20
177
     2
291
     1
 71
     2
176
     0
 72
     2
176
     0
 73
     0
176
     0
 90
        0
176
     0
 40
0.6
176
     0
 41
30.0
176
     0
 63
     7
421
 16777215
176
     0
 74
     1
176
     0
 91
        4
176
     0
 64
     7
176
     0
 65
   257
176
     0
 75
     1
176
     0
175
     1
176
     0
 42
1.0
176
     0
 92
       10
176
     2
 66
     7
176
     0
 43
1.0
176
     0
 76
     1
176
     0
 77
     6
176
     0
 78
     2
176
     0
 67
     7
176
     0
 79
     5
176
     0
170
     0
176
     0
171
     0
176
     0
290
     0
176
     0
 93
        1
176
     0
 44
0.0
176
     0
173
     0
176
     0
  0
VISUALSTYLE
  5
FD
102
{ACAD_REACTORS
330
EF
102
}
330
EF
100
AcDbVisualStyle
  2
Linepattern
 70
    14
177
     2
291
     1
 71
     2
176
     1
 72
     2
176
     1
 73
     1
176
     1
 90
        0
176
     1
 40
0.6
176
     1
 41
30.0
176
     1
 63
     7
421
 16777215
176
     1
 74
     1
176
     1
 91
        4
176
     1
 64
     7
176
     1
 65
   257
176
     1
 75
     7
176
     1
175
     7
176
     1
 42
1.0
176
     1
 92
        8
176
     1
 66
     7
176
     1
 43
1.0
176
     1
 76
     1
176
     1
 77
     6
176
     1
 78
     2
176
     1
 67
     7
176
     1
 79
     5
176
     1
170
     0
176
     1
171
     0
176
     1
290
     0
176
     1
 93
        1
176
     1
 44
0.0
176
     1
173
     0
176
     1
  0
VISUALSTYLE
  5
1E5
102
{ACAD_REACTORS
330
EF
102
}
330
EF
100
AcDbVisualStyle
  2
OverhangOff
 70
    21
177
     2
291
     1
 71
     2
176
     0
 72
     2
176
     0
 73
     0
176
     0
 90
        0
176
     0
 40
0.6
176
     0
 41
30.0
176
     0
 63
     7
421
 16777215
176
     0
 74
     1
176
     0
 91
        4
176
     0
 64
     7
176
     0
 65
   257
176
     0
 75
     1
176
     0
175
     1
176
     0
 42
1.0
176
     0
 92
        9
176
     2
 66
     7
176
     0
 43
1.0
176
     0
 76
     1
176
     0
 77
     6
176
     0
 78
     2
176
     0
 67
     7
176
     0
 79
     5
176
     0
170
     0
176
     0
171
     0
176
     0
290
     0
176
     0
 93
        1
176
     0
 44
0.0
176
     0
173
     0
176
     0
  0
VISUALSTYLE
  5
F9
102
{ACAD_REACTORS
330
EF
102
}
330
EF
100
AcDbVisualStyle
  2
Realistic
 70
     8
177
     2
291
     0
 71
     2
176
     1
 72
     3
176
     1
 73
     0
176
     1
 90
        2
176
     1
 40
0.6
176
     1
 41
30.0
176
     1
 63
     7
421
 16777215
176
     1
 74
     0
176
     1
 91
        0
176
     1
 64
     7
176
     1
 65
   257
176
     1
 75
     1
176
     1
175
     1
176
     1
 42
1.0
176
     1
 92
        8
176
     1
 66
   257
176
     1
 43
1.0
176
     1
 76
     1
176
     1
 77
     6
176
     1
 78
     2
176
     1
 67
     7
176
     1
 79
     3
176
     1
170
     0
176
     1
171
     0
176
     1
290
     0
176
     1
 93
       13
176
     1
 44
0.0
176
     1
173
     0
176
     1
  0
VISUALSTYLE
  5
1F3
102
{ACAD_REACTORS
330
EF
102
}
330
EF
100
AcDbVisualStyle
  2
Shaded
 70
    27
177
     2
291
     0
 71
     2
176
     1
 72
     2
176
     1
 73
     1
176
     1
 90
        2
176
     1
 40
0.6
176
     1
 41
30.0
176
     1
 63
     7
421
 16777215
176
     1
 74
     0
176
     1
 91
        4
176
     1
 64
     7
176
     1
 65
   257
176
     1
 75
     1
176
     1
175
     1
176
     1
 42
1.0
176
     1
 92
        8
176
     1
 66
   257
176
     1
 43
1.0
176
     1
 76
     1
176
     1
 77
     6
176
     1
 78
     2
176
     1
 67
     8
425
  7895160
176
     1
 79
     3
176
     1
170
     0
176
     1
171
     0
176
     1
290
     0
176
     1
 93
        5
176
     1
 44
0.0
176
     1
173
     0
176
     1
  0
VISUALSTYLE
  5
1F2
102
{ACAD_REACTORS
330
EF
102
}
330
EF
100
AcDbVisualStyle
  2
Shaded with edges
 70
    26
177
     2
291
     0
 71
     2
176
     1
 72
     2
176
     1
 73
     1
176
     1
 90
        2
176
     1
 40
0.6
176
     1
 41
30.0
176
     1
 63
     7
421
 16777215
176
     1
 74
     1
176
     1
 91
       10
176
     1
 64
     7
176
     1
 65
   257
176
     1
 75
     2
176
     1
175
     1
176
     1
 42
1.0
176
     1
 92
        8
176
     1
 66
   257
176
     1
 43
1.0
176
     1
 76
     1
176
     1
 77
     6
176
     1
 78
     2
176
     1
 67
     7
176
     1
 79
     3
176
     1
170
     0
176
     1
171
     0
176
     1
290
     0
176
     1
 93
        5
176
     1
 44
0.0
176
     1
173
     0
176
     1
  0
VISUALSTYLE
  5
1EF
102
{ACAD_REACTORS
330
EF
102
}
330
EF
100
AcDbVisualStyle
  2
Shades of Gray
 70
    23
177
     2
291
     0
 71
     2
176
     1
 72
     2
176
     1
 73
     3
176
     1
 90
        0
176
     1
 40
0.6
176
     1
 41
30.0
176
     1
 63
     7
421
 16777215
176
     1
 74
     2
176
     1
 91
        2
176
     1
 64
     7
176
     1
 65
     7
176
     1
 75
     1
176
     1
175
     1
176
     1
 42
40.0
176
     1
 92
        8
176
     1
 66
     7
176
     1
 43
1.0
176
     1
 76
     1
176
     1
 77
     6
176
     1
 78
     2
176
     1
 67
     7
176
     1
 79
     3
176
     1
170
     0
176
     1
171
     0
176
     1
290
     0
176
     1
 93
        1
176
     1
 44
0.0
176
     1
173
     0
176
     1
  0
VISUALSTYLE
  5
1F0
102
{ACAD_REACTORS
330
EF
102
}
330
EF
100
AcDbVisualStyle
  2
Sketchy
 70
    24
177
     2
291
     0
 71
     1
176
     1
 72
     2
176
     1
 73
     2
176
     1
 90
        0
176
     1
 40
0.6
176
     1
 41
30.0
176
     1
 63
     7
421
 16777215
176
     1
 74
     2
176
     1
 91
        2
176
     1
 64
     7
176
     1
 65
     7
176
     1
 75
     1
176
     1
175
     1
176
     1
 42
40.0
176
     1
 92
       11
176
     1
 66
     7
176
     1
 43
1.0
176
     1
 76
     1
176
     1
 77
     6
176
     1
 78
     2
176
     1
 67
     7
176
     1
 79
     6
176
     1
170
     0
176
     1
171
     0
176
     1
290
     0
176
     1
 93
        1
176
     1
 44
0.0
176
     1
173
     0
176
     1
  0
VISUALSTYLE
  5
FC
102
{ACAD_REACTORS
330
EF
102
}
330
EF
100
AcDbVisualStyle
  2
Thicken
 70
    13
177
     2
291
     1
 71
     2
176
     1
 72
     2
176
     1
 73
     1
176
     1
 90
        0
176
     1
 40
0.6
176
     1
 41
30.0
176
     1
 63
     7
421
 16777215
176
     1
 74
     1
176
     1
 91
        4
176
     1
 64
     7
176
     1
 65
   257
176
     1
 75
     1
176
     1
175
     1
176
     1
 42
1.0
176
     1
 92
       12
176
     1
 66
     7
176
     1
 43
1.0
176
     1
 76
     1
176
     1
 77
     6
176
     1
 78
     2
176
     1
 67
     7
176
     1
 79
     5
176
     1
170
     0
176
     1
171
     0
176
     1
290
     0
176
     1
 93
        1
176
     1
 44
0.0
176
     1
173
     0
176
     1
  0
VISUALSTYLE
  5
F6
102
{ACAD_REACTORS
330
EF
102
}
330
EF
100
AcDbVisualStyle
  2
Wireframe
 70
     5
177
     2
291
     0
 71
     0
176
     1
 72
     2
176
     1
 73
     0
176
     1
 90
        0
176
     1
 40
0.6
176
     1
 41
30.0
176
     1
 63
     7
421
 16777215
176
     1
 74
     1
176
     1
 91
        4
176
     1
 64
     7
176
     1
 65
   257
176
     1
 75
     1
176
     1
175
     1
176
     1
 42
1.0
176
     1
 92
        0
176
     1
 66
   257
176
     1
 43
1.0
176
     1
 76
     1
176
     1
 77
     6
176
     1
 78
     2
176
     1
 67
     7
176
     1
 79
     3
176
     1
170
     0
176
     1
171
     0
176
     1
290
     0
176
     1
 93
        1
176
     1
 44
0.0
176
     1
173
     0
176
     1
  0
VISUALSTYLE
  5
1F1
102
{ACAD_REACTORS
330
EF
102
}
330
EF
100
AcDbVisualStyle
  2
X-Ray
 70
    25
177
     2
291
     0
 71
     2
176
     1
 72
     2
176
     1
 73
     1
176
     1
 90
        1
176
     1
 40
0.5
176
     1
 41
30.0
176
     1
 63
     7
421
 16777215
176
     1
 74
     1
176
     1
 91
        0
176
     1
 64
     7
176
     1
 65
   257
176
     1
 75
     1
176
     1
175
     1
176
     1
 42
1.0
176
     1
 92
        8
176
     1
 66
     7
176
     1
 43
1.0
176
     1
 76
     1
176
     1
 77
     6
176
     1
 78
     2
176
     1
 67
     7
176
     1
 79
     3
176
     1
170
     0
176
     1
171
     0
176
     1
290
     0
176
     1
 93
       13
176
     1
 44
0.0
176
     1
173
     0
176
     1
  0
DICTIONARYVAR
  5
146
102
{ACAD_REACTORS
330
5E
102
}
330
5E
100
DictionaryVariables
280
     0
  1
1:1
  0
DICTIONARYVAR
  5
145
102
{ACAD_REACTORS
330
5E
102
}
330
5E
100
DictionaryVariables
280
     0
  1
STANDARD
  0
DICTIONARYVAR
  5
84
102
{ACAD_REACTORS
330
5E
102
}
330
5E
100
DictionaryVariables
280
     0
  1
STANDARD
  0
DICTIONARYVAR
  5
5F
102
{ACAD_REACTORS
330
5E
102
}
330
5E
100
DictionaryVariables
280
     0
  1
2
  0
DICTIONARYVAR
  5
63
102
{ACAD_REACTORS
330
5E
102
}
330
5E
100
DictionaryVariables
280
     0
  1
1
  0
DICTIONARYVAR
  5
1AE
102
{ACAD_REACTORS
330
5E
102
}
330
5E
100
DictionaryVariables
280
     0
  1
0
  0
DICTIONARYVAR
  5
1AF
102
{ACAD_REACTORS
330
5E
102
}
330
5E
100
DictionaryVariables
280
     0
  1
0
  0
DICTIONARY
  5
205
330
22
100
AcDbDictionary
280
     1
281
     1
  3
ADSK_XREC_LAYOUTTHUMBNAIL
360
206
  0
DICTIONARY
  5
1F9
330
ED
100
AcDbDictionary
280
     1
281
     1
  3
FBXASSET
360
1FA
  0
DICTIONARY
  5
1F7
330
EC
100
AcDbDictionary
280
     1
281
     1
  3
FBXASSET
360
1F8
  0
DICTIONARY
  5
173
330
EE
100
AcDbDictionary
280
     1
281
     1
  3
BUMPTILE
360
175
  3
DIFFUSETILE
360
174
  3
FBXASSET
360
1FB
  3
OPACITYTILE
360
176
  3
REFLECTIONTILE
360
177
  0
DICTIONARY
  5
162
330
7F
100
AcDbDictionary
280
     1
281
     1
  3
ACAD_ROUNDTRIP_2008_TABLESTYLE_CELLSTYLEMAP
360
BA0
  0
XRECORD
  5
206
102
{ACAD_REACTORS
330
205
102
}
330
205
100
AcDbXrecord
280
     1
310
28000000000100006C0000000100080000000000006C0000000000000000000000010000000000000000000000000000FFFFFF000000000000000000000000000000000000000000000000000000000000000000330000006600000099000000CC000000FF00000000330000333300006633000099330000CC330000FF3300
310
0000660000336600006666000099660000CC660000FF66000000990000339900006699000099990000CC990000FF99000000CC000033CC000066CC000099CC0000CCCC0000FFCC000000FF000033FF000066FF000099FF0000CCFF0000FFFF000000003300330033006600330099003300CC003300FF003300003333003333
310
33006633330099333300CC333300FF33330000663300336633006666330099663300CC663300FF66330000993300339933006699330099993300CC993300FF99330000CC330033CC330066CC330099CC3300CCCC3300FFCC330000FF330033FF330066FF330099FF3300CCFF3300FFFF330000006600330066006600660099
310
006600CC006600FF00660000336600333366006633660099336600CC336600FF33660000666600336666006666660099666600CC666600FF66660000996600339966006699660099996600CC996600FF99660000CC660033CC660066CC660099CC6600CCCC6600FFCC660000FF660033FF660066FF660099FF6600CCFF6600
310
FFFF660000009900330099006600990099009900CC009900FF00990000339900333399006633990099339900CC339900FF33990000669900336699006666990099669900CC669900FF66990000999900339999006699990099999900CC999900FF99990000CC990033CC990066CC990099CC9900CCCC9900FFCC990000FF99
310
0033FF990066FF990099FF9900CCFF9900FFFF99000000CC003300CC006600CC009900CC00CC00CC00FF00CC000033CC003333CC006633CC009933CC00CC33CC00FF33CC000066CC003366CC006666CC009966CC00CC66CC00FF66CC000099CC003399CC006699CC009999CC00CC99CC00FF99CC0000CCCC0033CCCC0066CC
310
CC0099CCCC00CCCCCC00FFCCCC0000FFCC0033FFCC0066FFCC0099FFCC00CCFFCC00FFFFCC000000FF003300FF006600FF009900FF00CC00FF00FF00FF000033FF003333FF006633FF009933FF00CC33FF00FF33FF000066FF003366FF006666FF009966FF00CC66FF00FF66FF000099FF003399FF006699FF009999FF00CC
310
99FF00FF99FF0000CCFF0033CCFF0066CCFF0099CCFF00CCCCFF00FFCCFF0000FFFF0033FFFF0066FFFF0099FFFF00CCFFFF00FFFFFF00000000000D0D0D001A1A1A00282828003535350043434300505050005D5D5D006B6B6B00787878008686860093939300A1A1A100AEAEAE00BBBBBB00C9C9C900D6D6D600E4E4E400
310
F1F1F100FFFFFF000000000000000000000000000000000000000000000000000000000000000000000000000000000000000000000000000000000000000000000000000000000000000000000000000000000000000000000000000000000000000000000000000000000000000000000000000000000000000000000000
310
00000000000000000000000000000000000000000000000000000000000000000000000000000000000000000000000000000000000000000000000000000000000000000000000000000000000000000000000000000000000000000000000000000000000000000000000000000000000000000000000000000000000000
310
00000000000000000000000000000000000000000000000000000000000000000000000000000000000000000000000000000000000000000000000000000000000000000000000000000000000000000000000000000000000000000000F5F5F5F5F5F5F5F5F5F5F5F5F5F5F5F5F5F5F5F5F5F5F5F5F5F5F5F5F5F5F5F5F5
310
F5F5F5F5F5F5F5F5F5F5F5F5F5F5F5F5F5F5F5F5F5F5F5F5F5F5F5F5F5F5F5F5F5F5F5F5F5F5F5F5F5F5F5F5F5F5F5F5F5F5F5F5F5F5F5F5F5F5F5F5F5F5F5F5F5F5F5F5F5F5F5F5F5F5F5F5F5F5F5F5F5F5F5F5F5F5F5F5F5F5F5F5F5F5F5F5F5F5F5F5F5F5F5F5F5F5F5F5F5F5F5F5F5F5F5F5F5F5F5F5F5F5F5F5F5F500
310
000000000000000000000000000000000000000000000000000000000000000000000000000000000000000000000000000000000000000000000000000000000000000000000000000000000000000000000000000000000000000000000000F5000000000000000000000000000000000000000000000000000000000000
310
000000000000000000000000000000000000000000000000000000000000000000000000000000000000000000F5F5F5F5F5F500000000000000000000000000000000000000000000000000000000000000000000000000000000000000000000000000000000000000000000000000000000000000000000000000000000
310
F500000000000000000000000000000000000000000000000000000000000000000000000000000000000000000000000000000000000000000000000000000000000000000000000000000000000000000000000000000000000000000000000000F500000000000000000000000000000000000000000000000000000000
310
00000000000000000000000000000000000000000000000000000000000000000000000000000000000000000000000000000000000000000000000000000000000000000000000000000000000000000000000000000000000000000000000000000000000000000000000000000000000000000000000000000000000000
310
0000F500000000000000000000000000000000000000000000000000000000000000000000000000000000000000000000000000000000000000000000000000000000000000000000000000000000000000000000000000000000000000000000000000F5F5F5F5F5F5F5F5F5F5F5F5F5F5F5F5F5F5F5F5F5F5F5F5F5F5F5
310
F5F5F5F5F5F5F5F5F5F5F5F5F5F5F5F5F5F5F5F5F5F5F5F5F5F5F5F5F5F5F5F5F5F5F5F5F5F5F5F5F5F5F5F5F5F5F5F5F5F5F5F5F5F5F5F5F5F5F5F5F5F5F5F5F5F5F5F5F5F5F5F5F5F5F5F5F5F5F5F5F5F5F5F5F5F5F5F5F5F5F5F5F5F5F5F5F5F5F5F5F5F5F5F5F5F5F5F5F5F5F5F5F5F5F5F5F5F5F5F5F5F5F5F5F5F5F5
310
F5F5F5F5F50000000000000000000000000000000000000000000000000000000000000000000000000000000000000000000000000000000000000000000000000000000000000000000000000000000000000000000000000000000000000000000000000059595959595959595959595959595959595959595959595959
310
5959595959595959595959595959595959595959F5595959595959595959F5F5F5F5F5F5F5F5F5F5F5F5F5F5F5F5F5F5F5F5F5F5F5F5F5F5F5F5F5F5F5F5F5F5F5F5F5F5F5F5F5F5F5F5F5F5F5F5F5F5F5F5F5F5F5F5F5F5F5F5F5F5F5F5F5F5F5F5F5F5F5F5F5F5F5F5F5F5F5F5F5F5F5F5F5F5F5F5F5F5F5F5F5F5F5F5F5
310
F5F5F5F5F5F5F5000000000000000000000000000000000000000000000000000000000000000000000000000000000000000000000000000000000000000000000000000000000000000000000000000000000000000000000000000000000000000000000000005959595959595959595959595959595959595959595959
310
595959595959595959595959F5595959595959595959F5F5F5F5F5F5F5F5F5F5F5F5F5F5F5F5F5F5F5F5F5F5F5F5F5F5F5F5F5F5F5F5F5F5F5F5F5F5F5F5F5F5F5F5F5F5F5F5F5F5F5F5F5F5F5F5F5F5F5F5F5F5F5F5F5F5F5F5F5F5F5F5F5F5F5F5F5F5F5F5F5F5F5F5F5F5F5F5F5F5F5F5F5F5F5F5F5F5F5F5F5F5F5F5F5
310
F5F5F5F5F5F5F5F5F500000000000000000000000000000000000000000000000000000000000000000000000000000000000000000000000000000000000000000000000000000000000000000000000000000000000000000000000000000000000000000000000000595959595959595959595959595959595959595959
310
595959595959F55959F559595959F559595959595959595959595959595959595959595959595959595959595959595959595959595959595959595959595959595959595959595959595959595959595959595959595959595959595959595959595959595959595959595959595959595959595959595959595959595959
310
59595959595959595959590000000000000000000000000000000000000000000000000000000000000000000000000000000000000000000000000000000000000000000000000000000000000000000000000000000000000000000000000000000000000000000000000059595959595959595959595959595959595959
310
5959595959595959F55959F55959F559595959F5595959595959F5F5F5F5F5F5F5F5F5F5F5F5F5F5F5F5F5F5F5F5F5F5F5F5F5F5F5F5F5F5F5F5F5F5F5F5F5F5F5F5F5F5F5F5F5F5F5F5F5F5F5F5F5F5F5F5F5F5F5F5F5F5F5F5F5F5F5F5F5F5F5F5F5F5F5F5F5F5F5F5F5F5F5F5F5F5F5F5F5F5F5F5F5F5F5F5F5F5F5F5F5
310
F5F5F5F5F5F5F5F5F5F5F5F5F500000000000000000000000000000000000000000000000000000000000000000000000000000000000000000000000000000000000000000000000000000000000000000000000000000000000000000000000000000000000000000000000000F5F5F5F5F5F5F5F5F5F5F5F5F5F5F5F5F5
310
F5F5F5F5F5F5F5F55959F5F5F5595959F55959F5F5F55959F5F5F5595959F5F5F5F5F5F5F5F5F5F5F5F5F5F5F5F5F5F5F5F5F5F5F5F5F5F5F5F5F5F5F5F5F5F5F5F5F5F5F5F5F5F5F5F5F5F5F5F5F5F5F5F5F5F5F5F5F5F5F5F5F5F5F5F5F5F5F5F5F5F5F5F5F5F5F5F5F5F5F5F5F5F5F5F5F5F5F5F5F5F5F5F5F5F5F5F5F5
310
F5F5F5F5F5F5F5F5F5F5F5F5F5F5F500000000000000000000000000000000000000000000000000000000000000000000000000000000000000000000000000000000000000000000000000000000000000000000000000000000000000000000000000000000000000000000000000595959595959595959595959595959
310
595959595959595959595959F5595959595959595959595959595959595959F5F5F5F5F5F5F5F5F5F5F5F5F5F5F5F5F5F5F5F5F5F5F5F5F5F5F5F5F5F5F5F5F5F5F5F5F5F5F5F5F5F5F5F5F5F5F5F5F5F5F5F5F5F5F5F5F5F5F5F5F5F5F5F5F5F5F5F5F5F5F5F5F5F5F5F5F5F5F5F5F5F5F5F5F5F5F5F5F5F5F5F5F5F5F5F5
310
F5F5F5F5F5F5F5F5F5F5F5F5F5F5F5F5F50000000000000000000000000000000000000000000000000000000000000000000000000000000000000000000000000000000000000000000000000000000000000000000000000000000000000000000000000000000000000000000000000059595959595959595959595959
310
59595959595959595959595959595959595959595959595959595959595959595959595959595959595959595959595959595959595959595959595959595959595959595959595959595959595959595959595959595959595959595959595959595959595959595959595959595959595959595959595959595959595959
310
59595959595959595959595959595959595959000000000000000000000000000000000000000000000000000000000000000000000000000000000000000000000000000000000000000000000000000000000000000000000000000000000000000000000000000000000000000000000000005959595959595959595959
310
5959595959595959595959595959595959595959F559F5F5F5F5F5F5F5F5F5F5F5F5F5F5F5F5F5F5F5F5F5F5F5F5F5F5F5F5F5F5F5F5F5F5F5F5F5F5F5F5F5F5F5F5F5F5F5F5F5F5F5F5F5F5F5F5F5F5F5F5F5F5F5F5F5F5F5F5F5F5F5F5F5F5F5F5F5F5F5F5F5F5F5F5F5F5F5F5F5F5F5F5F5F5F5F5F5F5F5F5F5F5F5F5F5
310
F5F5F5F5F5F5F5F5F5F5F5F5F5F5F5F5F5F5F5F5F500000000000000000000000000000000000000000000000000000000000000000000000000000000000000000000000000000000000000000000000000000000000000000000000000000000000000000000000000000000000000000000000000595959595959595959
310
595959595959595959595959595959595959595959595959F5F5F5F5F5F5F5F5F5F5F5F5F5F5F5F5F5F5F5F5F5F5F5F5F5F5F5F5F5F5F5F5F5F5F5F5F5F5F5F5F5F5F5F5F5F5F5F5F5F5F5F5F5F5F5F5F5F5F5F5F5F5F5F5F5F5F5F5F5F5F5F5F5F5F5F5F5F5F5F5F5F5F5F5F5F5F5F5F5F5F5F5F5F5F5F5F5F5F5F5F5F5F5
310
F5F5F5F5F5F5F5F5F5F5F5F5F5F5F5F5F5F5F5F5F5F5F500000000000000000000000000000000000000000000000000000000000000000000000000000000000000000000000000000000000000000000000000000000000000000000000000000000000000000000000000000000000000000000000000F5F5F5F5F5F5F5
310
F5F5F5F5F5F5F5F5F5F5F5F5F5F5F5F5F5F5F5F5F5F5F5F5F5F5F5F5F5F5F5F5F5F5F5F5F5F5F5F5F5F5F5F5F5F5F5F5F5F5F5F5F5F5F5F5F5F5F5F5F5F5F5F5F5F5F5F5F5F5F5F5F5F5F5F5F5F5F5F5F5F5F5F5F5F5F5F5F5F5F5F5F5F5F5F5F5F5F5F5F5F5F5F5F5F5F5F5F5F5F5F5F5F5F5F5F5F5F5F5F5F5F5F5F5F5F5
310
F5F5F5F5F5F5F5F5F5F5F5F5F5F5F5F5F5F5F5F5F5F5F5F5F5000000000000000000000000000000000000000000000000000000000000000000000000000000000000000000000000000000000000000000000000000000000000000000000000000000000000000000000000000000000000000000000000000000000000
310
00000000000000000000000000000000000000000000000000000000000000000000000000000000000000000000000000000000000000000000000000000000000000000000000000000000000000000000000000000000000000000000000000000000000000000000000000000000000000000000000000000000000000
310
00000000000000000000000000000000000000000000000000000000000000000000000000000000000000000000000000000000000000000000000000000000000000000000000000000000000000000000000000000000000000000000000000000000000000000000000000000000000000000000000000000000000000
310
00000000000000000000000000000000000000000000000000000000000000000000000000000000000000000000000000000000000000000000000000000000000000000000000000000000000000000000000000000000000000000000000000000000000000000000000000000000000000000000000000000000000000
310
00000000000000000000000000000000000000000000000000000000000000000000000000000000000000000000000000000000000000000000000000000000000000000000000000000000000000000000000000000000000000000000000000000000000000000000000000000000000000000000000000000000000000
310
00000000000000000000000000000000000000000000000000000000000000000000000000000000000000000000000000000000000000000000000000000000000000000000000000000000000000000000000000000000000000000000000000000000000000000000000000000000000000000000000000000000000000
310
00000000000000000000000000000000000000000000000000000000000000000000000000000000000000000000000000000000000000000000000000000000000000000000000000000000000000000000000000000000000000000000000000000000000000000000000000000000000000000000000000000000000000
310
00000000000000000000000000000000000000000000000000000000000000000000000000000000000000000000000000000000000000000000000000000000000000000000000000000000000000000000000000000000000000000000000000000000000000000000000000000000000000000000000000000000000000
310
00000000000000000000000000000000000000000000000000000000000000000000000000000000000000000000000000000000000000000000000000000000000000000000000000000000000000000000000000000000000000000000000000000000000000000000000000000000000000000000000000000000000000
310
00000000000000000000000000000000000000000000000000000000000000000000000000000000000000000000000000000000000000000000000000000000000000000000000000000000000000000000000000000000000000000000000000000000000000000000000000000000000000000000000000000000000000
310
00000000000000000000000000000000000000000000000000000000000000000000000000000000000000000000000000000000000000000000000000000000000000000000000000000000000000000000000000000000000000000000000000000000000000000000000000000000000000000000000000000000000000
310
00000000000000000000000000000000000000000000000000000000000000000000000000000000000000000000000000000000000000000000000000000000000000000000000000000000000000000000000000000000000000000000000000000000000000000000000000000000000000000000000000000000000000
310
00000000000000000000000000000000000000000000000000000000000000000000000000000000000000000000000000000000000000000000000000000000000000000000000000000000000000000000000000000000000000000000000000000000000000000000000000000000000000000000000000000000000000
310
00000000000000F500000000000000000000000000000000000000000000000000000000000000000000000000000000000000000000000000000000000000000000000000000000F5000000000000000000000000000000000000000000000000000000000000000000000000000000000000000000000000000000000000
310
00000000000000000000000000000000000000000000000000000000000000000000000000000000000000000000000000000000000000000000000000000000000000000000000000000000000000000000000000000000000000000000000000000000000000000000000000000000000000000000000000000000000000
310
000000000000000000F5F5F5F5F5F5F5F5F5F5F5F5F5F5F5F5F5F5F5F5F5F5F5F5F5F5F5F5F5F5F5F5F5F5F5F5F5F5F5F5F5F5F5F5F5F5F5F5F5F5F5F5F5F5F5F5F5F5F5F5F5F5F5F5F5F5000000F5000000000000000000000000000000000000000000000000000000000000000000000000000000000000000000000000
310
00000000000000000000000000000000000000000000000000000000000000000000000000000000000000000000000000F50000000000000000000000000000000000000000000000000000000000000000000000000000000000000000000000000000000000000000000000000000000000000000000000000000000000
310
0000000000000000000000F50000000000000000000000000000000000000000000000000000000000F5F5F5F5F5000000000000000000000000000000000000000000000000000000000000F5000000F5F5F5F5F5F5F5F5F5F5F5F5F5F5F5F5F5F5F5F5F5F5F5F5F5F5F5F5F5F5F5F5F5F5F5F5F5F5F5F5F5F5F5F5F5F5F5
310
F5F5F5F5F5F5F5F5F5F5F5F5F5F5F5F5F5F5F5F5F5F5F5F5F5F5F5F5F5F5F5F5F5F5F5F5F5F5F5F5F5F5F5F5F5F5F5F5F5F5F5F5000000000000000000000000000000000000000000000000000000000000000000000000000000000000000000000000000000000000000000000000000000000000000000000000000000
310
00000000000000000000000000F500000000000000000000000000000000000000000000000000000000000000000000000000000000000000000000000000000000000000000000000000000000F5000000F50000000000000000000000000000000000000000000000000000000000000000000000000000000000000000
310
0000000000000000000000000000000000000000000000000000000000000000000000000000000000000000000000000000000000F500000000000000000000000000000000000000000000000000000000000000000000000000000000000000000000000000000000000000000000000000000000000000000000000000
310
000000000000000000000000000000F500000000000000000000000000000000000000000000000000000000000000000000000000000000000000000000000000000000000000000000000000000000F5000000F5000000000000000000000000000000000000000000000000000000000000000000000000000000000000
310
00000000000000000000000000000000000000000000000000000000000000000000000000000000000000000000000000000000000000F50000000000000000000000000000000000000000000000000000000000000000000000000000000000000000000000000000000000000000000000000000000000000000000000
310
0000000000000000000000000000000000F5F5F5F5F5F5F5F5F5F5F5F5F5F5F5F5F5F5F5F5F5F5F5F5F5F5F5F5F5F5F5F5F5F5F5F5F5F5F5F5F5F5F5F5F5F5F5F5F5F5F5F5F5F5F5F5F5F5F5F5F5F5F5F5F5F5000000F5F5F5F5F5F5F5F50000F5F500F5F50000F5F50000F500000000F5F5F500F5F5F5F500F5F5F5F5F500
310
F5F5F5F5F5F5F5F5F5F5F5F5F5F5F5F5F5F5F5F5F5F5F5F5F5F5F5F5F5F5F5F5F5F5F5F5F5F5F5F5F5F5F5F5F5F5F5F5F5F5F5F5F5F5F5F5F5F5000000000000000000000000000000000000000000000000000000000000000000000000000000000000000000000000000000000000000000000000000000000000000000
310
00000000000000000000000000000000000000F5F5F5F5F5F5F5F5F5F5F5F5F5F5F5F5F5F5F5F5F5F5F5F5F500F5F5F5F5F5F5F5F5F5F5F5F5F5F5F5F5F5F5F5F5F5F5F5F5F5F5F5F5F5F5F5F5F5F5F5F5F5F5F5F5000000F5F5F5F5F5F5F5F500F5F5F5F5F5F5F5F5F5F5F500F500000000F5F5F5F5F5F5F5F5F5F5F5F5F5
310
F500F5F5F5F5F5F5F5F5F5F5F5F5F5F5F5F5F5F5F5F5F5F5F5F5F5F5F5F5F5F5F5F5F5F5F5F5F5F5F5F5F5F5F5F5F5F5F5F5F5F5F5F5F5F5F5F5F5F500000000000000000000000000000000000000000000000000000000000000000000000000000000000000000000000000000000000000000000000000000000000000
310
0000000000000000000000000000000000000000000000000000000000000000000000000000000000000000000000F5F5F5F5F5F5F5F500F5F5F5F5F5F5F500F5F5000000000000000000000000000000000000000000000000F5F5F5F5F5F5F5F500F500F5F5F500F5F500F5F500F500000000F50000F500F5F5F5F5F5F5
310
F5000000F5F5F5F5F5F5F5F5F5F5F5F5F5F5F5F5F5F5F5F5F5F5F5F5F5F5F5F5F5F5F5F5F5F5F5F5F5F5F5F5F5F5F5F5F5F5F5F5F5F5F5F5F5F5F5F5F5F50000000000000000000000000000000000000000000000000000000000000000000000000000000000000000000000000000000000000000000000000000000000
310
0000000000000000000000000000000000000000000000F5F5F5F5F5F5F5F5F5F5F5F5F5F5F5F5F5F5F5F5F5F5F5F5F5F5F5F5F5F5F5F5F5F5F5F5F5F5F5F5F5F5F5F5F5F5F5F5F5F5F5F5F5F5F5F5F5F5F5F5F5F5F5F5F5F500000000000000000000000000F5F5F5F500F5F500F5F500F500000000F50000F500F5F500F5
310
00F5F5F5F50000000000000000000000000000000000000000000000000000000000000000000000000000000000000000000000000000000000000000000000000000000000000000000000000000000000000000000000000000000000000000000000000000000000000000000000000000000000000000000000000000
310
00000000000000000000000000000000000000000000000000F5F5F5F5F5F5F5F5F5F5F5F5F5F5F5F5F5F5F5F5F5F5F5F5F5F5F5F5F5F5F5F5F5F5F5F5F5F5F5F5F5F5F5F5F500F5F5F5F5F5F5F5F5F5F5F5F5F5F5F5F5F5F5F5F5000000F5F5F5F5F5F5F5F500F5F5F5F5F500F5F500F5F500F500000000F50000F500F5F5
310
F5F5F5F5F5000000F5F5F5F5F5F5F5F5F5F5F5F5F5F5F5F5F5F5F5F5F5F5F5F5F5F5F5F5F5F5F5F5F5F5F5F5F5F5F5F5F5F5F5F5F5F5F5F5F5F5F5F5F5F5F5F5F5F500000000000000000000000000000000000000000000000000000000000000000000000000000000000000000000000000000000000000000000000000
310
000000000000000000000000000000000000000000000000000000F5F5F5F5F5F5F5F5F5F5F5F5F5F5F5F5F5F5F5F5F5F5F5F5F5F5F5F5F5F5F5F5F5F5F5F5F5F5F5F500F5F5F5F500F5F5F5F5F5F5F5F5F5F5F5F5F5F5F5F5F5F5F5F5000000F5F5F5F5F5F5F5F500F5F5F5F5F5F5F5F5F5F5F5F5F5F5F50000F50000F500
310
F5F5F5F5F5F5F5F5F500F5F5F5F5F5F5F5F5F5F5F5F5F5F5F5F5F5F5F5F5F5F5F5F5F5F5F5F5F5F5F5F5F5F5F5F5F5F5F5F5F5F5F5F5F5F5F5F5F5F5F5F5F5F5F5F5F5F50000000000000000000000000000000000000000000000000000000000000000000000000000000000000000000000000000000000000000000000
310
0000000000000000000000000000000000000000000000000000000000000000000000000000000000000000000000000000000000000000F5F500F5F500F5F50000000000000000F5F5F50000000000000000000000000000000000000000000000F5F5F5F5F5F5F5F50000F5F500F5F50000F5F5F5F5F5F5F50000F50000
310
F500F5F5F500F5F5F5F5F500F5F5F5F5F5F5F5F5F5F5F5F5F5F5F5F5F5F5F5F5F5F5F5F5F5F5F5F5F5F5F5F5F5F5F5F5F5F5F5F5F5F5F5F5F5F5F5F5F5F5F5F5F5F5F5F5F5F5000000000000000000000000000000000000000000000000000000000000000000000000000000000000000000000000000000000000000000
310
00000000000000000000000000000000000000000000000000000000000000F5F5F5F5F5F5F5F5F5F5F5F5F5F5F5F5F5F5F5F5F5F5F5F5F5F5F5F5F5F5F5F5F5F5F5F5F5F5F5F5F5F5F5F5F5F5F5F5F5F5F5F5F5F5F5F5F5F5F5F5F5F5F5F5F5F5000000000000000000000000000000000000000000000000000000000000
310
00000000000000000000000000000000000000000000000000000000000000000000000000000000000000000000000000000000000000000000000000000000000000000000000000000000000000000000000000000000000000000000000000000000000000000000000000000000000000000000000000000000000000
310
000000000000000000000000000000000000000000000000000000000000000000F5F5F5F5F5F5F5F5F5F5F5F5F5F5F5F5F5F5F5F5F5F5F5F5F5F5F5F5F5F5F5F5F5F5F5F5F5F5F5F5F5F5F5F5F5F5F5F5F5F5F5F5F5F5F5F5F5F5F5F5F5F5F5F5F5F500000000000000000000000000000000000000000000000000000000
310
00000000000000000000000000000000000000000000000000000000000000000000000000000000000000000000000000000000000000000000000000000000000000000000000000000000000000000000000000000000000000000000000000000000000000000000000000000000000000000000000000000000000000
310
00000000000000000000000000000000000000000000000000000000000000000000000000000000000000000000000000000000000000000000000000000000000000000000000000000000000000000000000000000000000000000000000000000000000000000000000000000000000000000000000000000000000000
310
00000000000000000000000000000000000000000000000000000000000000000000000000000000000000000000000000000000000000000000000000000000000000000000000000000000000000000000000000000000000000000000000000000000000000000000000000000000000000000000000000000000000000
310
00000000000000000000000000000000000000000000000000000000000000000000000000000000000000000000000000000000000000000000000000000000000000000000000000000000000000000000000000000000000000000000000000000000000000000000000000000000000000000000000000000000000000
310
00000000000000000000000000000000000000000000000000000000000000000000000000000000000000000000000000000000000000000000000000000000000000000000000000000000000000000000000000000000000000000000000000000000000000000000000000000000000000000000000000000000000000
310
00000000000000000000000000000000000000000000000000000000000000000000000000000000000000000000000000000000000000000000000000000000000000000000000000000000000000000000000000000000000000000000000000000000000000000000000000000000000000000000000000000000000000
310
00000000000000000000000000000000000000000000000000000000000000000000000000000000000000000000000000000000000000000000000000000000000000000000000000000000000000000000000000000000000000000000000000000000000000000000000000000000000000000000000000000000000000
310
00000000000000000000000000000000000000000000000000000000000000000000000000000000000000000000000000000000000000000000000000000000000000000000000000000000000000000000000000000000000000000000000000000000000000000000000000000000000000000000000000000000000000
310
00000000000000000000000000000000000000000000000000000000000000000000000000000000000000000000000000000000000000000000000000000000000000000000000000000000000000000000000000000000000000000000000000000000000000000000000000000000000000000000000000000000000000
310
00000000000000000000000000000000000000000000000000000000000000000000000000000000000000000000000000000000000000000000000000000000000000000000000000000000000000000000000000000000000000000000000000000000000000000000000000000000000000000000000000000000000000
310
00000000000000000000000000000000000000000000000000000000000000000000000000000000000000000000000000000000000000000000000000000000000000000000000000000000000000000000000000000000000000000000000000000000000000000000000000000000000000000000000000000000000000
310
00000000000000000000000000000000000000000000000000000000000000000000000000000000000000000000000000000000000000000000000000000000000000000000000000000000000000000000000000000000000000000000000000000000000000000000000000000000000000000000000000000000000000
310
00000000000000000000000000000000000000000000000000000000000000000000000000000000000000000000000000000000000000000000000000000000000000000000000000000000000000000000000000000000000000000000000000000000000000000000000000000000000000000000000000000000000000
310
00000000000000000000000000000000000000000000000000000000000000000000000000000000000000000000000000000000000000000000000000000000000000000000000000000000000000000000000000000000000000000000000000000000000000000000000000000000000000000000000000000000000000
310
00000000000000000000000000000000000000000000000000000000000000000000000000000000000000000000000000000000000000000000000000000000000000000000000000000000000000000000000000000000000000000000000000000000000000000000000000000000000000000000000000000000000000
310
00000000000000000000000000000000000000000000000000000000000000000000000000000000000000000000000000000000000000000000000000000000000000000000000000000000000000000000000000000000000000000000000000000000000000000000000000000000000000000000000000000000000000
310
00000000000000000000000000000000000000000000000000000000000000000000000000000000000000000000000000000000000000000000000000000000000000000000000000000000000000000000000000000000000000000000000000000000000000000000000000000000000000000000000000000000000000
310
00000000000000000000000000000000000000000000000000000000000000000000000000000000000000000000000000000000000000000000000000000000000000000000000000000000000000000000000000000000000000000000000000000000000000000000000000000000000000000000000000000000000000
310
00000000000000000000000000000000000000000000000000000000000000000000000000000000000000000000000000000000000000000000000000000000000000000000000000000000000000000000000000000000000000000000000000000000000000000000000000000000000000000000000000000000000000
310
00000000000000000000000000000000000000000000000000000000000000000000000000000000000000000000000000000000000000000000000000000000000000000000000000000000000000000000000000000000000000000000000000000000000000000000000000000000000000000000000000000000000000
310
00000000000000000000000000000000000000000000000000000000000000000000000000000000000000000000000000000000000000000000000000000000000000000000000000000000000000000000000000000000000000000000000000000000000000000000000000000000000000000000000000000000000000
310
00000000000000000000000000000000000000000000000000000000000000000000000000000000000000000000000000000000000000000000000000000000000000000000000000000000000000000000000000000000000000000000000000000000000000000000000000000000000000000000000000000000000000
310
00000000000000000000000000000000000000000000000000000000000000000000000000000000000000000000000000000000000000000000000000000000000000000000000000000000000000000000000000000000000000000000000000000000000000000000000000000000000000000000000000000000000000
310
00000000000000000000000000000000000000000000000000000000000000000000000000000000000000000000000000000000000000000000000000000000000000000000000000000000000000000000000000000000000000000000000000000000000000000000000000000000000000000000000000000000000000
310
00000000000000000000000000000000000000000000000000000000000000000000000000000000000000000000000000000000000000000000000000000000000000000000000000000000000000000000000000000000000000000000000000000000000000000000000000000000000000000000000000000000000000
310
00000000000000000000000000000000000000000000000000000000000000000000000000000000000000000000000000000000000000000000000000000000000000000000000000000000000000000000000000000000000000000000000000000000000000000000000000000000000000000000000000000000000000
310
00000000000000000000000000000000000000000000000000000000000000000000000000000000000000000000000000000000000000000000000000000000000000000000000000000000000000000000000000000000000000000000000000000000000000000000000000000000000000000000000000000000000000
310
00000000000000000000000000000000000000000000000000000000000000000000000000000000000000000000000000000000000000000000000000000000000000000000000000000000000000000000000000000000000000000000000000000000000000000000000000000000000000000000000000000000000000
310
00000000000000000000000000000000000000000000000000000000000000000000000000000000000000000000000000000000000000000000000000000000000000000000000000000000000000000000000000000000000000000000000000000000000000000000000000000000000000000000000000000000000000
310
00000000000000000000000000000000000000000000000000000000000000000000000000000000000000000000000000000000000000000000000000000000000000000000000000000000000000000000000000000000000000000000000000000000000000000000000000000000000000000000000000000000000000
310
00000000000000000000000000000000000000000000000000000000000000000000000000000000000000000000000000000000000000000000000000000000000000000000000000000000000000000000000000000000000000000000000000000000000000000000000000000000000000000000000000000000000000
310
00000000000000000000000000000000000000000000000000000000000000000000000000000000000000000000000000000000000000000000000000000000000000000000000000000000000000000000000000000000000000000000000000000000000000000000000000000000000000000000000000000000000000
310
00000000000000000000000000000000000000000000000000000000000000000000000000000000000000000000000000000000000000000000000000000000000000000000000000000000000000000000000000000000000000000000000000000000000000000000000000000000000000000000000000000000000000
310
00000000000000000000000000000000000000000000000000000000000000000000000000000000000000000000000000000000000000000000000000000000000000000000000000000000000000000000000000000000000000000000000000000000000000000000000000000000000000000000000000000000000000
310
00000000000000000000000000000000000000000000000000000000000000000000000000000000000000000000000000000000000000000000000000000000000000000000000000000000000000000000000000000000000000000000000000000000000000000000000000000000000000000000000000000000000000
310
00000000000000000000000000000000000000000000000000000000000000000000000000000000000000000000000000000000000000000000000000000000000000000000000000000000000000000000000000000000000000000000000000000000000000000000000000000000000000000000000000000000000000
310
00000000000000000000000000000000000000000000000000000000000000000000000000000000000000000000000000000000000000000000000000000000000000000000000000000000000000000000000000000000000000000000000000000000000000000000000000000000000000000000000000000000000000
310
00000000000000000000000000000000000000000000000000000000000000000000000000000000000000000000000000000000000000000000000000000000000000000000000000000000000000000000000000000000000000000000000000000000000000000000000000000000000000000000000000000000000000
310
00000000000000000000000000000000000000000000000000000000000000000000000000000000000000000000000000000000000000000000000000000000000000000000000000000000000000000000000000000000000000000000000000000000000000000000000000000000000000000000000000000000000000
310
00000000000000000000000000000000000000000000000000000000000000000000000000000000000000000000000000000000000000000000000000000000000000000000000000000000000000000000000000000000000000000000000000000000000000000000000000000000000000000000000000000000000000
310
00000000000000000000000000000000000000000000000000000000000000000000000000000000000000000000000000000000000000000000000000000000000000000000000000000000000000000000000000000000000000000000000000000000000000000000000000000000000000000000000000000000000000
310
00000000000000000000000000000000000000000000000000000000000000000000000000000000000000000000000000000000000000000000000000000000000000000000000000000000000000000000000000000000000000000000000000000000000000000000000000000000000000000000000000000000000000
310
00000000000000000000000000000000000000000000000000000000000000000000000000000000000000000000000000000000000000000000000000000000000000000000000000000000000000000000000000000000000000000000000000000000000000000000000000000000000000000000000000000000000000
310
00000000000000000000000000000000000000000000000000000000000000000000000000000000000000000000000000000000000000000000000000000000000000000000000000000000000000000000000000000000000000000000000000000000000000000000000000000000000000000000000000000000000000
310
00000000000000000000000000000000000000000000000000000000000000000000000000000000000000000000000000000000000000000000000000000000000000000000000000000000000000000000000000000000000000000000000000000000000000000000000000000000000000000000000000000000000000
310
00000000000000000000000000000000000000000000000000000000000000000000000000000000000000000000000000000000000000000000000000000000000000000000000000000000000000000000000000000000000000000000000000000000000000000000000000000000000000000000000000000000000000
310
00000000000000000000000000000000000000000000000000000000000000000000000000000000000000000000000000000000000000000000000000000000000000000000000000000000000000000000000000000000000000000000000000000000000000000000000000000000000000000000000000000000000000
310
00000000000000000000000000000000000000000000000000000000000000000000000000000000000000000000000000000000000000000000000000000000000000000000000000000000000000000000000000000000000000000000000000000000000000000000000000000000000000000000000000000000000000
310
00000000000000000000000000000000000000000000000000000000000000000000000000000000000000000000000000000000000000000000000000000000000000000000000000000000000000000000000000000000000000000000000000000000000000000000000000000000000000000000000000000000000000
310
00000000000000000000000000000000000000000000000000000000000000000000000000000000000000000000000000000000000000000000000000000000000000000000000000000000000000000000000000000000000000000000000000000000000000000000000000000000000000000000000000000000000000
310
00000000000000000000000000000000000000000000000000000000000000000000000000000000000000000000000000000000000000000000000000000000000000000000000000000000000000000000000000000000000000000000000000000000000000000000000000000000000000000000000000000000000000
310
00000000000000000000000000000000000000000000000000000000000000000000000000000000000000000000000000000000000000000000000000000000000000000000000000000000000000000000000000000000000000000000000000000000000000000000000000000000000000000000000000000000000000
310
00000000000000000000000000000000000000000000000000000000000000000000000000000000000000000000000000000000000000000000000000000000000000000000000000000000000000000000000000000000000000000000000000000000000000000000000000000000000000000000000000000000000000
310
00000000000000000000000000000000000000000000000000000000000000000000000000000000000000000000000000000000000000000000000000000000000000000000000000000000000000000000000000000000000000000000000000000000000000000000000000000000000000000000000000000000000000
310
00000000000000000000000000000000000000000000000000000000000000000000000000000000000000000000000000000000000000000000000000000000000000000000000000000000000000000000000000000000000000000000000000000000000000000000000000000000000000000000000000000000000000
310
00000000000000000000000000000000000000000000000000000000000000000000000000000000000000000000000000000000000000000000000000000000000000000000000000000000000000000000000000000000000000000000000000000000000000000000000000000000000000000000000000000000000000
310
00000000000000000000000000000000000000000000000000000000000000000000000000000000000000000000000000000000000000000000000000000000000000000000000000000000000000000000000000000000000000000000000000000000000000000000000000000000000000000000000000000000000000
310
00000000000000000000000000000000000000000000000000000000000000000000000000000000000000000000000000000000000000000000000000000000000000000000000000000000000000000000000000000000000000000000000000000000000000000000000000000000000000000000000000000000000000
310
00000000000000000000000000000000000000000000000000000000000000000000000000000000000000000000000000000000000000000000000000000000000000000000000000000000000000000000000000000000000000000000000000000000000000000000000000000000000000000000000000000000000000
310
00000000000000000000000000000000000000000000000000000000000000000000000000000000000000000000000000000000000000000000000000000000000000000000000000000000000000000000000000000000000000000000000000000000000000000000000000000000000000000000000000000000000000
310
00000000000000000000000000000000000000000000000000000000000000000000000000000000000000000000000000000000000000000000000000000000000000000000000000000000000000000000000000000000000000000000000000000000000000000000000000000000000000000000000000000000000000
310
00000000000000000000000000000000000000000000000000000000000000000000000000000000000000000000000000000000000000000000000000000000000000000000000000000000000000000000000000000000000000000000000000000000000000000000000000000000000000000000000000000000000000
310
00000000000000000000000000000000000000000000000000000000000000000000000000000000000000000000000000000000000000000000000000000000000000000000000000000000000000000000000000000000000000000000000000000000000000000000000000000000000000000000000000000000000000
310
00000000000000000000000000000000000000000000000000000000000000000000000000000000000000000000000000000000000000000000000000000000000000000000000000000000000000000000000000000000000000000000000000000000000000000000000000000000000000000000000000000000000000
310
00000000000000000000000000000000000000000000000000000000000000000000000000000000000000000000000000000000000000000000000000000000000000000000000000000000000000000000000000000000000000000000000000000000000000000000000000000000000000000000000000000000000000
310
00000000000000000000000000000000000000000000000000000000000000000000000000000000000000000000000000000000000000000000000000000000000000000000000000000000000000000000000000000000000000000000000000000000000000000000000000000000000000000000000000000000000000
310
00000000000000000000000000000000000000000000000000000000000000000000000000000000000000000000000000000000000000000000000000000000000000000000000000000000000000000000000000000000000000000000000000000000000000000000000000000000000000000000000000000000000000
310
00000000000000000000000000000000000000000000000000000000000000000000000000000000000000000000000000000000000000000000000000000000000000000000000000000000000000000000000000000000000000000000000000000000000000000000000000000000000000000000000000000000000000
310
00000000000000000000000000000000000000000000000000000000000000000000000000000000000000000000000000000000000000000000000000000000000000000000000000000000000000000000000000000000000000000000000000000000000000000000000000000000000000000000000000000000000000
310
00000000000000000000000000000000000000000000000000000000000000000000000000000000000000000000000000000000000000000000000000000000000000000000000000000000000000000000000000000000000000000000000000000000000000000000000000000000000000000000000000000000000000
310
00000000000000000000000000000000000000000000000000000000000000000000000000000000000000000000000000000000000000000000000000000000000000000000000000000000000000000000000000000000000000000000000000000000000000000000000000000000000000000000000000000000000000
310
00000000000000000000000000000000000000000000000000000000000000000000000000000000000000000000000000000000000000000000000000000000000000000000000000000000000000000000000000000000000000000000000000000000000000000000000000000000000000000000000000000000000000
310
00000000000000000000000000000000000000000000000000000000000000000000000000000000000000000000000000000000000000000000000000000000000000000000000000000000000000000000000000000000000000000000000000000000000000000000000000000000000000000000000000000000000000
310
00000000000000000000000000000000000000000000000000000000000000000000000000000000000000000000000000000000000000000000000000000000000000000000000000000000000000000000000000000000000000000000000000000000000000000000000000000000000000000000000000000000000000
310
00000000000000000000000000000000000000000000000000000000000000000000000000000000000000000000000000000000000000000000000000000000000000000000000000000000000000000000000000000000000000000000000000000000000000000000000000000000000000000000000000000000000000
310
00000000000000000000000000000000000000000000000000000000000000000000000000000000000000000000000000000000000000000000000000000000000000000000000000000000000000000000000000000000000000000000000000000000000000000000000000000000000000000000000000000000000000
310
00000000000000000000000000000000000000000000000000000000000000000000000000000000000000000000000000000000000000000000000000000000000000000000000000000000000000000000000000000000000000000000000000000000000000000000000000000000000000000000000000000000000000
310
00000000000000000000000000000000000000000000000000000000000000000000000000000000000000000000000000000000000000000000000000000000000000000000000000000000000000000000000000000000000000000000000000000000000000000000000000000000000000000000000000000000000000
310
00000000000000000000000000000000000000000000000000000000000000000000000000000000000000000000000000000000000000000000000000000000000000000000000000000000000000000000000000000000000000000000000000000000000000000000000000000000000000000000000000000000000000
310
0000000000000000000000000000000000000000000000000000000000000000000000000000000000000000000000000000000000000000000000000000000000000000000000000000000000000000000000000000000000000000000000000000000000000000000000000000000000F5F5F5F5F5F5F5F5F5F5F5F5F5F5
310
F5F5F5F5F5F5F5F5F5F5F5F5F5F5F5F5F5F5F5F5F5F5F5F5F5F5F5F5F5F5F5F5F5F5F5F5F5F5F5F5F5F5F5F5F5F5F5F5F5F5F5F5F5F5F5F5F5F5F5F5F5F5F5F5F5F5F5F5F5F5F5F5F5F5F5F5F5F5F5F5F5F5F5F5F5F5F5F5F5F5F5F5F5F5F5F5F5F5F5F5F5F5F5F5F5F5F5F5F5F5F5F5F5F5F5F5F5F5F5F5F5F5F5F5F5F5F5
310
F5F5F5F5F5F5F5F5F5F5F5F5F5F5F5F5F5F500000000000000000000000000000000000000000000000000000000000000000000000000000000000000000000000000000000000000000000000000000000000000000000000000000000000000000000000000000000000000000000000000F5F500000000000000000000
310
00000000000000000000000000000000000000000000000000000000000000000000000000000000000000000000000000000000000000000000000000000000F5F5F5F5F5F5000000000000000000000000000000000000000000000000000000000000000000000000000000000000000000000000000000000000000000
310
000000000000000000000000000000000000F5F500000000000000000000000000000000000000000000000000000000000000000000000000000000000000000000000000000000000000000000000000000000000000000000000000000000000000000000000000000000000000000000000000F5000000000000000000
310
00000000000000000000000000000000000000000000000000000000000000000000000000000000000000000000000000000000000000000000000000000000000000000000000000000000000000000000000000000000000000000000000000000000000000000000000000000000000000000000000000000000000000
310
000000000000000000000000000000000000000000F500000000000000000000000000000000000000000000000000000000000000000000000000000000000000000000000000000000000000000000000000000000000000000000000000000000000000000000000000000000000000000000000000F5F5F5F5F5F5F5F5
310
F5F5F5F5F5F5F5F5F5F5F5F5F5F5F5F5F5F5F5F5F5F5F5F5F5F5F5F5F5F5F5F5F5F5F5F5F5F5F5F5F5F5F5F5F5F5F5F5F5F5F5F5F5F5F5F5F5F5F5F5F5F5F5F5F5F5F5F5F5F5F5F5F5F5F5F5F5F5F5F5F5F5F5F5F5F5F5F5F5F5F5F5F5F5F5F5F5F5F5F5F5F5F5F5F5F5F5F5F5F5F5F5F5F5F5F5F5F5F5F5F5F5F5F5F5F5F5
310
F5F5F5F5F5F5F5F5F5F5F5F5F5F5F5F5F5F5F5F5F5F5F5F500000000000000000000000000000000000000000000000000000000000000000000000000000000000000000000000000000000000000000000000000000000000000000000000000000000000000000000000000000000000000000000000000F5F5F5F5F5F5
310
F5F5F5F5F5F5F5F5F5F5F5F5F5F5F5F5F5F5F5F5F5F5F5F5F5F5F5F5F5F5F5F5F5F5F5F5F5F5F5F5595959595959595959F5F5F5F5F5F5F5F5F5F5F5F5F5F5F5F5F5F5F5F5F5F5F5F5F5F5F5F5F5F5F5F5F5F5F5F5F5F5F5F5F5F5F5F5F5F5F5F5F5F5F5F5F5F5F5F5F5F5F5F5F5F5F5F5F5F5F5F5F5F5F5F5F5F5F5F5F5F5
310
F5F5F5F5F5F5F5F5F5F5F5F5F5F5F5F5F5F5F5F5F5F5F5F5F5F500000000000000000000000000000000000000000000000000000000000000000000000000000000000000000000000000000000000000000000000000000000000000000000000000000000000000000000000000000000000000000000000000F5F5F5F5
310
F5F5F5F5F5F5F5F5F5F5F5F5F5F5F5F5F5F5F5F5F5F5F5F5F5F5F5F5F5F5F5F5F5F5F5F5F5F5F5F5F5F5F5F5F5F5F5F5F5F5F5F5F5F5F5F5F5F5F5F5F5F5F5F5F5F5F5F5F5F5F5F5F5F5F5F5F5F5F5F5F5F5F5F5F5F5F5F5F5F5F5F5F5F5F5F5F5F5F5F5F5F5F5F5F5F5F5F5F5F5F5F5F5F5F5F5F5F5F5F5F5F5F5F5F5F5F5
310
F5F5F5F5F5F5F5F5F5F5F5F5F5F5F5F5F5F5F5F5F5F5F5F5F5F5F5F500000000000000000000000000000000000000000000000000000000000000000000000000000000000000000000000000000000000000000000000000000000000000000000000000000000000000000000000000000000000000000000000000F559
310
5959595959595959595959595959595959595959595959F5F5F559F5F5F5F5F5F5F5F5F5F5F5F5F559F5F5595959595959595959595959595959595959595959595959595959595959595959595959595959595959595959595959595959595959595959595959595959595959595959595959595959595959595959595959
310
5959595959595959595959595959595959595959595959595959595959F500000000000000000000000000000000000000000000000000000000000000000000000000000000000000000000000000000000000000000000000000000000000000000000000000000000000000000000000000000000000000000000000000
310
F559595959595959595959595959595959595959595959595959F5F5F5F5F5F5F5F5F5F5F5F5F5F5F5F559F5F559595959595959595959595959595959595959595959595959595959595959595959595959595959595959595959595959595959595959595959595959595959595959595959595959595959595959595959
310
59595959595959595959595959595959595959595959595959595959595959F50000000000000000000000000000000000000000000000000000000000000000000000000000000000000000000000000000000000000000000000000000000000000000000000000000000000000000000000000000000000000000000000
310
0000F5F5F5F5F5F5F5F5F5F5F5F5F5F5F5F5F5F5F5F5F5F5F5F5F5F5F5F5F5F5F5F5F5F5F5F5F5F5F5F5F5F5F5F5F5F5F5F5F5F5F5F5F5F5F5F5F5F5F5F5F5F5F5F5F5F5F5F5F5F5F5F5F5F5F5F5F5F5F5F5F5F5F5F5F5F5F5F5F5F5F5F5F5F5F5F5F5F5F5F5F5F5F5F5F5F5F5F5F5F5F5F5F5F5F5F5F5F5F5F5F5F5F5F5F5
310
F5F5F5F5F5F5F5F5F5F5F5F5F5F5F5F5F5F5F5F5F5F5F5F5F5F5F5F5F5F5F5F5F5F5000000000000000000000000000000000000000000000000000000000000000000000000000000000000000000000000000000000000000000000000000000000000000000000000000000000000000000000000000000000000000000
310
00000000F5F5F5F5F5F5F5F5F5F5F5F5F5F5F5F5F5F5F5F5F5F5F5F5F5F5F5F5F5F5F5F5F5F5F5F5F5F5F5F5F5F5F5F5F5F5F5F5F5F5F5F5F5F5F5F5F5F5F5F5F5F5F5F5F5F5F5F5F5F5F5F5F5F5F5F5F5F5F5F5F5F5F5F5F5F5F5F5F5F5F5F5F5F5F5F5F5F5F5F5F5F5F5F5F5F5F5F5F5F5F5F5F5F5F5F5F5F5F5F5F5F5F5
310
F5F5F5F5F5F5F5F5F5F5F5F5F5F5F5F5F5F5F5F5F5F5F5F5F5F5F5F5F5F5F5F5F5F5F5F500000000000000000000000000000000000000000000000000000000000000000000000000000000000000000000000000000000000000000000000000000000000000000000000000000000000000000000000000000000000000
310
000000000000F559595959595959595959595959595959595959595959595959F5F5F559F5F559F5F55959595959595959F5F5F5595959595959595959595959595959595959595959595959595959595959595959595959595959595959595959595959595959595959595959595959595959595959595959595959595959
310
59595959595959595959595959595959595959595959595959595959595959595959595959F50000000000000000000000000000000000000000000000000000000000000000000000000000000000000000000000000000000000000000000000000000000000000000000000000000000000000000000000000000000000
310
0000000000000000F5F5F5F5F5F5F5F5F5F5F5F5F5F5F5F5F5F5F5F5F5F5F5F5F5F5F5F5F5F5F5F5F5F5F5F5F5F5F5F5F5F5F5F5F5F5F5F5F5F5F5F5F5F5F5F5F5F5F5F5F5F5F5F5F5F5F5F5F5F5F5F5F5F5F5F5F5F5F5F5F5F5F5F5F5F5F5F5F5F5F5F5F5F5F5F5F5F5F5F5F5F5F5F5F5F5F5F5F5F5F5F5F5F5F5F5F5F5F5
310
F5F5F5F5F5F5F5F5F5F5F5F5F5F5F5F5F5F5F5F5F5F5F5F5F5F5F5F5F5F5F5F5F5F5F5F5F5F5F5F5000000000000000000000000000000000000000000000000000000000000000000000000000000000000000000000000000000000000000000000000000000000000000000000000000000000000000000000000000000
310
00000000000000000000F5F5F5F5F5F5F5F5F5F5F5F5F5F5F5F5F5F5F5F5F5F5F5F5F5F5F5F5F5F5F5F5F5F5F5F5F5F5F5F5F5F5F5F5F5F5F5F5F5F5F5F5F5F5F5F5F5F5F5F5F5F5F5F5F5F5F5F5F5F5F5F5F5F5F5F5F5F5F5F5F5F5F5F5F5F5F5F5F5F5F5F5F5F5F5F5F5F5F5F5F5F5F5F5F5F5F5F5F5F5F5F5F5F5F5F5F5
310
F5F5F5F5F5F5F5F5F5F5F5F5F5F5F5F5F5F5F5F5F5F5F5F5F5F5F5F5F5F5F5F5F5F5F5F5F5F5F5F5F5F500000000000000000000000000000000000000000000000000000000000000000000000000000000000000000000000000000000000000000000000000000000000000000000000000000000000000000000000000
310
000000000000000000000000F5F5F5F5F5F5F5F5F5F5F5F5F5F5F5F5F5F5F5F5F5F5F5F5F5F5F5F5F5F5F5F559F5F5F5F5F5F5F5F5F5F5F5F5F5F5F5F5F5F5F5F5F5F5F5F5F5F5F5F5F5F5F5F5F5F5F5F5F5F5F5F5F5F5F5F5F5F5F5F5F5F5F5F5F5F5F5F5F5F5F5F5F5F5F5F5F5F5F5F5F5F5F5F5F5F5F5F5F5F5F5F5F5F5
310
F5F5F5F5F5F5F5F5F5F5F5F5F5F5F5F5F5F5F5F5F5F5F5F5F5F5F5F5F5F5F5F5F5F5F5F5F5F5F5F5F5F5F5F50000000000000000000000000000000000000000000000000000000000000000000000000000000000000000000000000000000000000000000000000000000000000000000000000000000000000000000000
310
0000000000000000000000000000F5F5F5F5F5F5F5F5F5F5F5F5F5F5F5F5F5F5F5F5F5F5F5F5F5F5F5F5F5F5F5F5F5F5F5F5F5F5F5F5F5F5F5F5F5F5F5F5F5F5F5F5F5F5F5F5F5F5F5F5F5F5F5F5F5F5F5F5F5F5F5F5F5F5F5F5F5F5F5F5F5F5F5F5F5F5F5F5F5F5F5F5F5F5F5F5F5F5F5F5F5F5F5F5F5F5F5F5F5F5F5F5F5
310
F5F5F5F5F5F5F5F5F5F5F5F5F5F5F5F5F5F5F5F5F5F5F5F5F5F5F5F5F5F5F5F5F5F5F5F5F5F5F5F5F5F5F5F5F5F5000000000000000000000000000000000000000000000000000000000000000000000000000000000000000000000000000000000000000000000000000000000000000000000000000000000000000000
310
00000000000000000000000000000000000000000000000000000000000000000000000000000000000000000000000000000000000000000000000000000000000000000000000000000000000000000000000000000000000000000000000000000000000000000000000000000000000000000000000000000000000000
310
00000000000000000000000000000000000000000000000000000000000000000000000000000000000000000000000000000000000000000000000000000000000000000000000000000000000000000000000000000000000000000000000000000000000000000000000000000000000000000000000000000000000000
310
00000000000000000000000000000000000000000000000000000000000000000000000000000000000000000000000000000000000000000000000000000000000000000000000000000000000000000000000000000000000000000000000000000000000000000000000000000000000000000000000000000000000000
310
00000000000000000000000000000000000000000000000000000000000000000000000000000000000000000000000000000000000000000000000000000000000000000000000000000000000000000000000000000000000000000000000000000000000000000000000000000000000000000000000000000000000000
310
00000000000000000000000000000000000000000000000000000000000000000000000000000000000000000000000000000000000000000000000000000000000000000000000000000000000000000000000000000000000000000000000000000000000000000000000000000000000000000000000000000000000000
310
00000000000000000000000000000000000000000000000000000000000000000000000000000000000000000000000000000000000000000000000000000000000000000000000000000000000000000000000000000000000000000000000000000000000000000000000000000000000000000000000000000000000000
310
00000000000000000000000000000000000000000000000000000000000000000000000000000000000000000000000000000000000000000000000000000000000000000000000000000000000000000000000000000000000000000000000000000000000000000000000000000000000000000000000000000000000000
310
00000000000000000000000000000000000000000000000000000000000000000000000000000000000000000000000000000000000000000000000000000000000000000000000000000000000000000000000000000000000000000000000000000000000000000000000000000000000000000000000000000000000000
310
00000000000000000000000000000000000000000000000000000000000000000000000000000000000000000000000000000000000000000000000000000000000000000000000000000000000000000000000000000000000000000000000000000000000000000000000000000000000000000000000000000000000000
310
00000000000000000000000000000000000000000000000000000000000000000000000000000000000000000000000000000000000000000000000000000000000000000000000000000000000000000000000000000000000000000000000000000000000000000000000000000000000000000000000000000000000000
310
0000000000000000000000000000000000000000000000000000F5F5F5F5F5F5F5F5F5F5F5F5F5F5F5F5F5F5F5F5F5F5F5F5F5F5F5F5F5F5F5F5F5F5F5F5F5F5F5F5F5F5F5F5F5F5F5F5F5F5F5F5F5F5F5F5F5F5F5F5F5F5F5F5F5F50000000000000000000000000000000000000000000000000000000000000000000000
310
00000000000000000000000000000000000000000000000000000000000000000000000000000000000000000000000000000000000000000000000000000000000000000000000000000000000000000000000000000000000000000000000000000000000000000000000000000000000000000000000000000000000000
310
00000000000000000000000000000000000000000000000000000000F50000000000000000000000000000000000000000000000000000000000F5F5F5F5F5000000000000000000000000000000000000000000000000000000000000F5000000000000000000000000000000000000000000000000000000000000000000
310
00000000000000000000000000000000000000000000000000000000000000000000000000000000000000000000000000000000000000000000000000000000000000000000000000000000000000000000000000000000000000000000000000000000000000000000000000000000000000000000000000000000000000
310
000000000000000000000000000000000000000000000000000000000000F500000000000000000000000000000000000000000000000000000000000000000000000000000000000000000000000000000000000000000000000000000000F5000000F5F5F5F5F5F5F5F5F5F5F5F5F5F5F5F5F5F5F5F5F5F5F5F5F5F5F5F5
310
F5F5F5F5F5F5F5F5F5F5F5F5F5F5F5F5F5F5F5F5F5F5F5F5F5F5F5F5F5F5F5F5F5F5F5F5F5F5F5F5F5F5F5F5F5F5F5F5F5F5F5F5F5F5F5F5F5F5F5F5F5F5F5F5F5F5F5F5F5F5F50000000000000000000000000000000000000000000000000000000000000000000000000000000000000000000000000000000000000000
310
0000000000000000000000000000000000000000000000000000000000000000F500000000000000000000000000000000000000000000000000000000000000000000000000000000000000000000000000000000000000000000000000000000F5000000F500000000000000000000000000000000000000000000000000
310
0000000000000000000000000000000000000000F5F5F5F5F5F500000000000000000000000000000000000000000000000000000000000000000000000000000000000000000000F5000000000000000000000000000000000000000000000000000000000000000000000000000000000000000000000000000000000000
310
00000000000000000000000000000000000000000000000000000000000000000000F5F5F5F5F5F5F5F5F5F5F5F5F5F5F5F5F5F5F5F5F5F5F5F5F5F5F5F5F5F5F5F5F5F5F5F5F5F5F5F5F5F5F5F5F5F5F5F5F5F5F5F5F5F5F5F5F5F5F5F5F5F5F5F5F5F5000000F50000000000000000000000000000000000000000000000
310
0000000000000000000000000000000000000000000000000000000000000000000000000000000000000000000000000000000000000000000000000000000000000000000000000000F500000000000000000000000000000000000000000000000000000000000000000000000000000000000000000000000000000000
310
000000000000000000000000000000000000000000000000000000000000000000000000F5F5F5F5F5F5F5F5F5F5F5F5F5F5F5F5F5F5F5F5F5F5F5F5F5F5F5F5F5F5F5F5F5F5F5F5F5F5F5F5F5F5F5F5F5F5F5F5F5F5F5F5F5F5F5F5F5F5F5F5F5F5F5F5F5F5000000F5000000000000000000000000000000000000000000
310
00000000000000000000000000000000000000000000000000000000000000000000000000000000000000000000000000000000000000000000000000000000000000000000000000000000F50000000000000000000000000000000000000000000000000000000000000000000000000000000000000000000000000000
310
00000000000000000000000000000000000000000000000000000000000000000000000000000000000000000000000000000000000000000000000000000000F5F5F5F5F5F5F5F5F5F5F5F5F5F5F5F500F5F5000000000000000000000000000000000000000000000000F5F5F5F5F5F5F5F500F5F5F5F5F5F5F5F5F5F5F5
310
00F500000000F5F5F5F5F5F5F5F500F5F5F5F5F500F5F5F5F5F5F5F5F5F5F5F5F5F5F5F5F5F5F5F5F5F5F5F5F5F5F5F5F5F5F5F5F5F5F5F5F5F5F5F5F5F5F5F5F5F5F5F5F5F5F5F5F5F5F5F5F5F5F5000000000000000000000000000000000000000000000000000000000000000000000000000000000000000000000000
310
00000000000000000000000000000000000000000000000000000000000000000000000000000000F5F5F5F5F5F5F5F5F5F5F5F5F5F5F5F5F5F5F5F5F5F5F5F5F5F5F5F5F5F5F5F5F5F5F5F5F5F5F5F5F5F5F5F5F5F5F5F5F5F5F5F5F5F5F5F5F5F5F5F5F5F5F5F5F5F5000000F5F5F5F5F5F5F5F500F500F5F5F5F5F5F500
310
F5F500F500000000F50000F5F5F5F5F5F5F5F5F5000000F5F5F5F5F5F5F5F5F5F5F5F5F5F5F5F5F5F5F5F5F5F5F5F5F5F5F5F5F5F5F5F5F5F5F5F5F5F5F5F5F5F5F5F5F5F5F5F5F5F5F5F5F5F5F5F5F5F500000000000000000000000000000000000000000000000000000000000000000000000000000000000000000000
310
000000000000000000000000000000000000000000000000000000000000000000000000000000000000F5F5F5F5F5F5F5F5F5F5F5F5F5F5F5F5F5F5F5F5F5F5F5F5F5F5F5F5F5F5F5F5F5F5F5F5F5F5F5F5F5F5F5F5F5F5F5F5F5F5F5F5F5F5F5F5F5F5F5F5F5F5F5F5F5F500000000000000000000000000F5F5F5F500F5
310
F500F5F500F500000000F50000F500F5F5F5F5F5F5F5F5F500000000000000000000000000000000000000000000000000000000000000000000000000000000000000000000000000000000000000000000000000000000000000000000000000000000000000000000000000000000000000000000000000000000000000
310
0000000000000000000000000000000000000000000000000000000000000000000000000000000000000000F5F5F5F5F5F5F5F5F5F5F5F5F5F5F5F5F5F5F5F5F5F5F5F5F5F5F5F5F5F5F5F5F5F5F5F5F5F5F5F500F5F5F5F5F5F5F5F5F5F5F5F5F5F5F5F5F5F5F5F5F5F5F5F5F5000000000000000000000000F5F5F5F5F5
310
00F5F500F5F500F500000000F50000F500F5F5F5F5F5F5F5F5F50000000000000000000000000000000000000000000000000000000000000000000000000000000000000000000000000000000000000000000000000000000000000000000000000000000000000000000000000000000000000000000000000000000000
310
00000000000000000000000000000000000000000000000000000000000000000000000000000000000000000000000000000000000000000000000000000000000000000000000000F5F500F5F5F5F5F50000000000000000F5F5F50000000000000000000000000000000000000000000000F5F5F5F5F5F5F5F500F5F5F5
310
F5F5F5F5F5F5F5F5F5F5F5F50000F50000F500F5F5F5F5F5F5F5F5F500F5F5F5F5F5F5F5F5F5F5F5F5F5F5F5F5F5F5F5F5F5F5F5F5F5F5F5F5F5F5F5F5F5F5F5F5F5F5F5F5F5F5F5F5F5F5F5F5F5F5F5F5F5F5F5F5F5F500000000000000000000000000000000000000000000000000000000000000000000000000000000
310
000000000000000000000000000000000000000000000000000000000000000000000000000000000000000000000000F5F5F5F5F5F5F5F5F5F5F5F5F5F5F5F5F5F5F5F5F5F5F5F5F5F5F5F5F5F5F5F5F5F5F5F5F5F5F5F5F5F5F5F5F5F5F5F5F5F5F5F5F5F5F5F5F5F5F5F5F5F5F5F5F5F5000000F5F5F5F5F5F5F5F500F5
310
F5F500F5F5F5F5F5F5F5F5F5F5F50000F50000F500F5F5F500F5F5F5F5F500F5F5F5F5F5F5F5F5F5F5F5F5F5F5F5F5F5F5F5F5F5F5F5F5F5F5F5F5F5F5F5F5F5F5F5F5F5F5F5F5F5F5F5F5F5F5F5F5F5F5F5F5F5F5F5F5F5F50000000000000000000000000000000000000000000000000000000000000000000000000000
310
0000000000000000000000000000000000000000000000000000000000000000000000000000000000000000000000000000F5F5F5F5F5F5F5F5F5F5F5F5F5F5F5F5F5F5F5F5F5F5F5F5F5F5F5F5F5F5F5F5F5F5F5F5F5F5F5F5F5F5F5F5F5F5F5F5F5F5F5F5F5F5F5F5F5F5F5F5F5F5F5F5F5F50000000000000000000000
310
00000000000000000000000000000000000000000000000000000000000000000000000000000000000000000000000000000000000000000000000000000000000000000000000000000000000000000000000000000000000000000000000000000000000000000000000000000000000000000000000000000000000000
310
00000000000000000000000000000000000000000000000000000000000000000000000000000000000000000000000000000000000000000000000000000000000000000000000000000000000000000000000000000000000000000000000000000000000000000000000000000000000000000000000000000000000000
310
00000000000000000000000000000000000000000000000000000000000000000000000000000000000000000000000000000000000000000000000000000000000000000000000000000000000000000000000000000000000000000000000000000000000000000000000000000000000000000000000000000000000000
310
00000000000000000000
  0
XRECORD
  5
1FA
102
{ACAD_REACTORS
330
1F9
102
}
330
1F9
100
AcDbXrecord
280
     1
 70
     1
 90
429727718
  1
D62C5603-E3A1-4AEA-B7FB-FE5D8D0755AF
310
504B03040A0000080000CC70623B3DEE336E79000000790000001B0000006175746F6465736B2D64657369676E2D7061636B6167652E786D6C3C3F786D6C2076657273696F6E3D22312E302220656E636F64696E673D227574662D3822203F3E3C666F726D6174733E3C666F726D61743E687474703A2F2F736368656D612E
310
6175746F6465736B2E636F6D2F64657369676E2D7061636B6167652F323030393C2F666F726D61743E3C2F666F726D6174733E504B0304140006080800CC70623BD486FD9CA0000000F4000000130000005B436F6E74656E745F54797065735D2E786D6C7D8EC10E82300C865F65E91D8A1E8C310C0EEA1BF002731658846E
310
D98AC1B77784ABF1D8FE5FBFBF75BBCE937A534CCEB38643598122B6FEE978D0B0485F9C41B54DDD7D022595594E1A469170414C76A4D9A4D207E29CF43ECE46F218070CC6BECC4078ACAA135ACF422C856C0E68EA1BF5669944DDD7BCDE7B1F8E415D77AECB980613C2E4AC91FC167A2B244592486606FC29C8FD7F045B9A
310
EF7053A7E60B504B0304140006080800CC70623B853B8169EB0000007C01000008000000636F72652E786D6C8D90416EC3201045AF62CDB6C206821CC7C244919D9CA01740401C94182C03558F5F9C3852BBEB6A467FFE9B197D7EFC9E1EC5975982F5AE035262288C535E5B377690E21535501C055FBC8FBF6C503839990E
310
5619041F179FE64D52DE45E362569DD7661365082642A11EB9E920A89B99642953CC8E702F67A9EE7234257977194EC9EAE275C4EABCCF5EAD5940D4AC6F0E35A568B8F43562CD7046CD199FD07E60174276A7BE677B5EADB0E0D14EEFFB6A31321A0D82627C4084204C3F096B71DD52F6819B16635EADF63F509AF53FA164
310
5DDCD1EDDD17164090FCC8732078B56691CB33A85CD7DCC40F504B0304140006080800CC70623B55019EA25F0000007C00000007000000636E782E786D6C4DCB3B0E80201045D1AD90E915ED2CF8AC45050C11660C8261F98AB1B07AC9C97D42D718D865D3E909258CFD00CCE24AC6E326A164D74DC0B4128928FF32603847
310
2BA13128B1252AC747C6BAB984FC68F0B87FE8960A5C09FE86CFB69FBA01504B0304140006080800CC70623BDBABAAF470010000D40300000C0000006662782F636F72652E786D6CC553D16E823014FD95A6AF4B694182CC941A83FA05FB810A9511A125A5257EFE2E82712ECEB8A7F100CD39F7F69E734AF9FADC366850B6
310
AF8DCE7018308C942E4C59EB2AC3DE1D498AD15A706B8CFB56869196ADCAF00863C12B6B7C374385D14E6907A836A59A41D9F7CA615434B0C8705F7CAA5606D23BA8E84F41278B93AC54100640439DE0BDB320004D43C63716C7C399D30917DCFBBA9CD9BA8469F5B156168B24CED3F7248AC8769F27244EB73B92EED8862C
310
B7F13E0C179B3C8F979C8ECD82BBBABDAA2BAC924E9558448CBD9330242CFA08E3154B5651FCC6D215639C8EE5774DBE2B5F6CF2B5768B68963BB5F5588420E442FC700B1139D4CB01F450C1E918227C2E09DF070D8140C84E1E9AAB8F1340832A9CB13130A5F1376A908D57309505ECF2A0DF179C4E9D30F5B239B87E3823
310
7A79C6F31DE1A8A5AEC08474B03C7837EAE4938639B44E5932B833D2C6B6B279CDC613877FA26EE21F4A2A4C63EC7F29A2F301D1F9F7A0E37D145F504B0304140006080800CC70623B9C113CC27E0000009D0000000B0000006662782F636E782E786D6C4DCCDF0A83201C86E15B91DFB94BFB330DD428C8FB886521330DA7
310
6397BF1A1DECE883878F57749FCDA1B7892F1BBC047A23808C7F84D9FA55424E0BE6803A256208E9EF06C84F9B91703228B1C690F78B66B34CD9A5439DF5CF0BFBF65E35BCA1B8D6A5C6F540381E886698B5741C695F9503EBA150A2F8958E3DC3EA0B504B0304140006080800CC70623B7DF2F77C2A010000120200003100
310
00006662782F41393633353835312D344632462D344230382D423046372D3739314545314133324237412F636F72652E786D6C8D51DB8EC22014FC15C2939B0D2DB4B45643319AE817EC0F6041255A68B86CFCFC856D4D76DF7CE190393373060EDB3DC707F856CE6B6B7A480A0C81328395DA5C7B18C3057510EC3873D686
310
3F34088C18550F330C39BB3A1BA7051AAC09CA84841A2BD5020AEF55806078A44B0FFD7053A328440C89E1EFC52486BBB8AA8214A99D789CF9E05200300FC927E4FB4D5B375D43103D5527440FB843077C5AA3F5861C8F645F5787F59E95B390B318B55CE45AA638FAA2957BD7248B390B7A7CC51F9C124149C82B8C378810
310
84AB2F42B7B8DD56F413775B8C5999E9FF4471926F8AA236A1AE96B8B3CC434E5839373893369E1FAF30EA395917409EB7F26AF8801C171837A4A6AC9C89E9F9C9B1A58BA30FD6A5EF5DDDCF894B9AD9B6A59C957943A9FCAE2FD5BC4DFE03504B0304140006080800CC70623BAD7543B64E01000033030000300000006662
310
782F41393633353835312D344632462D344230382D423046372D3739314545314133324237412F636E782E786D6CD593CD6EC32010845F0571AD6CE3D48AD20813A9873E410FBD12D82434182C7EAAE6EDBB2424CD25871E7B41D6EC30B3FA84F9E67BB2E40B4234DE8DB46F1925E094D7C6ED479AD3AE5951B2113C789FEE
310
6C943839C1488B4C05DF079FE72A69D8C96C13AAD6B8631503449F83828872B949AC57D26200B826A308D316B4064D6E46FCDA41C05550DC9E483A00797BFD207EFB092A45DE9514C1BBD22178396BD39D891265658C238DEA00936C654E5E433CB65A26D9F6EDB5EBC14EBF49A45CB856E66048291F6939A9A81BB5C89177
310
38143CA680F4AA299D66A042CEB3354A2684DC9D8D178FE0D9B8B41CAAD720F880EE7EF93C0C18769E099ECC04D5A102C8049A8A05632F4DDF376CF1DE0F6BB65C2F8627B65A33C6BB62177CEBBDAD973006829F89F22E814B54F4BC2BE347F8AA8F681390B50FA73F804400B5F542E796F19FF974E7F78DB802FE05E20750
310
4B0304140006080800CC70623BE75B7789680500003C100000340000006662782F41393633353835312D344632462D344230382D423046372D3739314545314133324237412F6F626A656374732E786D6CAD575B8F9B3818FD2B887D06C22499CB8AA1CA655245D5B455A356FB305264C061D8018C6C3393D95FBFC7600890
310
A4CD5EF210B0B1BFEBF98E3F7B1FF6596ABC522E1296DF9BAE3D320D9A872C4AF2F8DE2CE5CEBA358D0FBEC719939D65A691938CDE9B6ADAF4BD98B3B2D05311DD91329583D9D5FC0F438434A7A611A644887B5384CF34233629258BA878B12322891DEFF6B66BD70BFB62634E8AE781D082709A4B588AF91C528CDA28B73F
310
1C998EEF39EABBEFA97FBD6A7C7E9553F9D3D79FE442923C3C523610337627CB87ABE99D359D4CC6D6E4FACAB5E6ABF9D2726FC6A3C5F56271377BB88362213924694B38DD99FE47C48627A1E7D49F5A8BB5E1A74C0A599ED3B0F21F1E56366B89112D681E218F0915D0D6F17AD41FBA2A369DCF6335D62ABBD39779D5DDD1
310
11D4D8DE3CBB96B2E04FB8202E41051754A1AA8E8F76B4C6DFE810B580B1547F4B84911149794252234D024EF8BBE963A95AE27B3D310A9D5C215C7960FAEE415ED75694C6AFB17BCACA5D99A60A9AA65F217B0BFC53292ACB92BF283FAD0D3621576592CB5BED907C2FA8E9DF794E35E97BEA31BED21FEB401ABB94C44839
310
DCACBF0E1C5DA8DA5B2F4DFFD32AD86F543D9E565E7056502E157C00AD2671CD534549AB752FCA9CDA00677A313F04E51B22FF19E57B300579E3C97EB29F682D92935CEC18CF901B7B54FD8C51F362B56FC72FE0B3C1EAE335EDCCBF5AEC39ADB17DC238973F804BA5E6F6BFE7AF1FB32E523BE9F3BD571418E3631DCA4D48
310
5250CF639223210A9446CA30052EDF057BD35F8329C1ECD84552BF0DC8D18BE7BCE23BFE6BD960AB4A7DE79923A103BEBD80F911CBAA2C60DB19B01CF164A5583B772EE6D3FFA56666CBCDA74DC97724A48F9A58967497E489C4D979006FD7A05E227A1EBDD0F737C623387A9C844D3709995625106D157315F8B8392CD4E0
310
A0B9A720C4BE9829CEF37EA1E13111214D53925356365ADA634861B52519DD27A00AEB808EAF0628E6F435519D446F45CF2C9CF5214F0A15B2F6D06B79DA3EE3CBF7F56780D2F4E7EF73A0F5E5B02A38D07DC852C6B7C1FBB6664213E0C39E3EBA7FF4E1AD23EA2829407C85E586727488B751B2DB9502BC7B228A3FD68B6E
310
A65A22397E690AA8D158D7E404EC8CDA235CC3B7D1898680131CEC2CDF2638C65196279577750F15884AEE19F94199155B92B13297978469D4F8D358DF0AEF7631E28DC8F0D9F437D5D39A83B2231A1D52D543813A824EF8D44BCFF2FA6A31BD1E8DAD87F1CCB526B3879935BF59CDADD5C37479BB1CDD4CA7B3556B516589
310
EF352754B706114D9C885EC9131DE6EFEB43D99AFE2391C2F958179413D7CFEF6B1B6DB1E7600F00DE6E5C67454A339A4BA2E0FBA85ED26F045D454F463DBFCE484C2F90F2E5E3666003662ED8F755951A7D1BECD5B30B550B2785C8E7320B7292A4838DDA71BBC863ED7613CAF659337A3354231D4FF4A182A54904C2898C
310
98B28C4AD0CE056CCF332A80986E571EE9DBC305BB5FEB7E509220A58D25CF042D712A806AC0AD0C657FDEF80D2D9CEAA2EE4D1C76F60BFE74219A06527D6F82DF6412526107381E55E353090704D085B52408A8913C4ED159D79BDA71BB4BC506F4831350EB6F975CD22D69BF7AC49B91A2C0A9DDA3D5CA36AD20FC478E37
310
E61844E2352865EBCB61A275A65283CAAA9DD27703B4102F5AF51EF5F573B75CBB5AD38BC845F7A49F82A0966A49C2E3EA5EA0ECD326CD965F1DB402C6FA8B51A4658C5C5E2EC9E214602E55810345408596591009A82E7E7FFACA19EEA299B14A0081A705CB3296EBC14CDF658DCD336EA6D1136881AAEB87B81AB9EE53D5
310
F5EB8BC8362082DA24122F98680A4E7930C01A0079749CEA14382A0783E5EBA5A10F8C098456A03D6A4AEB6BB881E2513747552A5DB22C7EDAF83BD5528081A365F7FF06504B0304140006080000CC70623B000000000000000000000000350000006662782F41393633353835312D344632462D344230382D423046372D37
310
39314545314133324237412F76657274696365732E62696E504B0304140006080800CC70623BF270F1330600000004000000360000006662782F41393633353835312D344632462D344230382D423046372D3739314545314133324237412F747269616E676C65732E62696E636660600000504B0304140006080000CC7062
310
3B000000000000000000000000370000006662782F41393633353835312D344632462D344230382D423046372D3739314545314133324237412F617474726962757465732E62696E504B0304140006080800CC70623B08DA0BD19000000041010000360000006662782F41393633353835312D344632462D344230382D4230
310
46372D3739314545314133324237412F6469726563746F72792E786D6C858F410AC3201045AF22B36F53E9A60B35CBEEBAE80D244E44489C6234F4F835464A48035D0DF398FF9F8AF63D0E6CC63039F212F8F9020C7D47C6792B21C5FE7403D62A1188E2E60C98D7234A5830286103A55745067B9D86B8A3CF9C7F90C11DE6
310
07FB144396D7B6A82D282E9A152AD114D5EF2CB866EEE831B8EEA07A7BB5A8D7D61A2BAAEB7FD5F70921FF497D00504B0304140006080800CC70623BEDD1DC58FD000000A00100003B0000006662782F41393633353835312D344632462D344230382D423046372D3739314545314133324237412F7265736F75726365732F
310
636F72652E786D6C8D504B6E833010BD0A9A6D65B00922041947112427E8052C33A156828DFCA97AFC9A40A576D7CDCCE87D344F8F9FBFE667F689CE6B6B3A6039850C8DB2A336530731DC4903D95970676DF82583CCC8193B5861107C72362E3BA4AC096842428D1D7107A5F7182053CF7474E0D507CE32973124857FE48B
310
540F3961CEF244279DE03EB81420DB9EAC1384436FA353E879B1B182C7A8C75DA3C7F453DF353A1075D537A7BA6464B8F535A99AE14A9A2BBD90E350DD183B5CFABE3AF262350B1EF4FC9351399401471025A527C218A1E53BAB5A5AB765F5469B96525EACF23FA6B88CFF34456DC2A1DCE36E360F82A5202F42F062ED2BAD
310
579969AFDD8A6F504B010214000A0000080000CC70623B3DEE336E79000000790000001B00000000000000000000000000000000006175746F6465736B2D64657369676E2D7061636B6167652E786D6C504B01021400140006080800CC70623BD486FD9CA0000000F40000001300000000000000000000000000B20000005B
310
436F6E74656E745F54797065735D2E786D6C504B01021400140006080800CC70623B853B8169EB0000007C010000080000000000000000000000000083010000636F72652E786D6C504B01021400140006080800CC70623B55019EA25F0000007C000000070000000000000000000000000094020000636E782E786D6C504B
310
01021400140006080800CC70623BDBABAAF470010000D40300000C00000000000000000000000000180300006662782F636F72652E786D6C504B01021400140006080800CC70623B9C113CC27E0000009D0000000B00000000000000000000000000B20400006662782F636E782E786D6C504B01021400140006080800CC70
310
623B7DF2F77C2A010000120200003100000000000000000000000000590500006662782F41393633353835312D344632462D344230382D423046372D3739314545314133324237412F636F72652E786D6C504B01021400140006080800CC70623BAD7543B64E010000330300003000000000000000000000000000D2060000
310
6662782F41393633353835312D344632462D344230382D423046372D3739314545314133324237412F636E782E786D6C504B01021400140006080800CC70623BE75B7789680500003C10000034000000000000000000000000006E0800006662782F41393633353835312D344632462D344230382D423046372D3739314545
310
314133324237412F6F626A656374732E786D6C504B01021400140006080000CC70623B0000000000000000000000003500000000000000000000000000280E00006662782F41393633353835312D344632462D344230382D423046372D3739314545314133324237412F76657274696365732E62696E504B01021400140006
310
080800CC70623BF270F133060000000400000036000000000000000000000000007B0E00006662782F41393633353835312D344632462D344230382D423046372D3739314545314133324237412F747269616E676C65732E62696E504B01021400140006080000CC70623B0000000000000000000000003700000000000000
310
000000000000D50E00006662782F41393633353835312D344632462D344230382D423046372D3739314545314133324237412F617474726962757465732E62696E504B01021400140006080800CC70623B08DA0BD1900000004101000036000000000000000000000000002A0F00006662782F41393633353835312D344632
310
462D344230382D423046372D3739314545314133324237412F6469726563746F72792E786D6C504B01021400140006080800CC70623BEDD1DC58FD000000A00100003B000000000000000000000000000E1000006662782F41393633353835312D344632462D344230382D423046372D3739314545314133324237412F7265
310
736F75726365732F636F72652E786D6C504B0506000000000E000E0080040000641100000000
  0
XRECORD
  5
1F8
102
{ACAD_REACTORS
330
1F7
102
}
330
1F7
100
AcDbXrecord
280
     1
 70
     1
 90
429727718
  1
30362254-06B7-45E0-A893-8CFA70E3D6BC
310
504B03040A0000080000CC70623B3DEE336E79000000790000001B0000006175746F6465736B2D64657369676E2D7061636B6167652E786D6C3C3F786D6C2076657273696F6E3D22312E302220656E636F64696E673D227574662D3822203F3E3C666F726D6174733E3C666F726D61743E687474703A2F2F736368656D612E
310
6175746F6465736B2E636F6D2F64657369676E2D7061636B6167652F323030393C2F666F726D61743E3C2F666F726D6174733E504B0304140006080800CC70623BD486FD9CA0000000F4000000130000005B436F6E74656E745F54797065735D2E786D6C7D8EC10E82300C865F65E91D8A1E8C310C0EEA1BF002731658846E
310
D98AC1B77784ABF1D8FE5FBFBF75BBCE937A534CCEB38643598122B6FEE978D0B0485F9C41B54DDD7D022595594E1A469170414C76A4D9A4D207E29CF43ECE46F218070CC6BECC4078ACAA135ACF422C856C0E68EA1BF5669944DDD7BCDE7B1F8E415D77AECB980613C2E4AC91FC167A2B244592486606FC29C8FD7F045B9A
310
EF7053A7E60B504B0304140006080800CC70623B1EC5D7A3EB0000007C01000008000000636F72652E786D6C8D90416EC3201045AF82665B6103C6756C6122AB4D4ED00B204C5C94182C03558F5F9C3852BBEB6A467FFE9B197D71FC9E6FE8CBACC17AD7032D0820E3B41FAD9B7A48F1820F808E52ACDEC75F36404ECDA687
310
4D0629A6D5A76597B477D1B89855E747B38B2A041301E95B6E7A08FAD3CCAA50296647B8168BD2573599823EBB0CA76447F43862C7BCCF5EAC59410E4DDD9C7973C2755553CCCFA4C603E3040F1565ED3B1FDE4E432BCA0D9622DAF9795FAF464533826484B498524CD807E51D79ED187F21878E10516EF63F505AC67F42C9
310
BA58B1FDDD071640D2FCC87D2045B96591CB3DA85CB7DCE40F504B0304140006080800CC70623B55019EA25F0000007C00000007000000636E782E786D6C4DCB3B0E80201045D1AD90E915ED2CF8AC45050C11660C8261F98AB1B07AC9C97D42D718D865D3E909258CFD00CCE24AC6E326A164D74DC0B4128928FF32603847
310
2BA13128B1252AC747C6BAB984FC68F0B87FE8960A5C09FE86CFB69FBA01504B0304140006080800CC70623B8C9102E971010000D40300000C0000006662782F636F72652E786D6CC5535B6E833010BC8AE5DF0A6C08340F1947A84D4ED00B38C6A128602363A31CBFCB234A53A551FA553EC09AD9F5CE8C31DB9E9B1AF5CA
310
7695D1198E428A91D2D214952E33ECDD315861B4E5CC1AE3BE9561A445A3323CC098B3D21ADFCE9034DA29ED00D5A6503328BA4E398C640D8B0C77F253352214DE4145770A5B214FA2546114020D759C75CE8200340D19DE981F0F6746269C33EFAB6266AB02A655C74A59CCF365BADC27CB5D902ED22848F6340DF238A141
310
BE88E2F57B92BFEDF23523433367AE6A2EEAA455C2A902F398D2751045018D3FA264435F3771F242571B4A1919CA6F9A7C5B3CD9E42BED16F12C776AEB308F40C848FC700B1139D4891EF410CEC810227CC6846F8386402064270EF5C5C709A05E49676C024C61FC95EA45ED154CA5211D1FF4FB8291A913A68E9B83EBBB33
310
E2A7673CDE118E5AE8124C0807CB8377834E366998436B950D7A7746DAD846D4CFD978E0F04FD455FC5D49D2D4C6FE9722321F10997F0F32DC47FE05504B0304140006080800CC70623BFFEA85907E0000009D0000000B0000006662782F636E782E786D6C4DCCD10A83201886E15B91FFDC95D95A811AB6F23E625948A6C3
310
E9D8E5AF46073BFAE0E1E365ED67B3E8ADC3CB78C7815C7240DA3DFC64DCC221C519D7805AC182F7F1EF06C88D9BE6703008B6049F9E274D7A1E938DBB5AE3D6131B2589BA0D3D965551E0B2EA732C9B9A624AAEB41E3A557677029960D9AFB4EF11165F504B0304140006080800CC70623B4FEEA4082C0100001202000031
310
0000006662782F39464131463745442D413632322D343644302D413938332D3331353338454246344243312F636F72652E786D6C8D515B6EC32010BC0AE2AB55850DD871ED0813254D72825EC00192A2C460F1A872FC42ED48ED5F7E00CDCECCCEB26C731F6FE05B39AFADE921293004CA082BB5B9F43086336A21D870E6AC
310
0D7F68109861543DCC30E4ECE26C9C164858139409093556AA051CBC570102714B8F1E7AF1A5C6A11862480C7F2DA6415C878B2A4891CA89C7990F2E050073937C42DE1DB7E4F87ED8A36D4329AA9B3D46DBAEAD504556557BD81DEBDD0761E52CE42C462D17B996298E3E6BE59E35C962CE821E1FF18553435012728A7187
310
0841987E927A8D9B35ADDF70BBC6989599FE4F1427F9A4286A132ABAC49D651EF234CD5CE04CDA78BA3DC2A8FB645D00B9DF8B57E215725C60BCA2A463E54C4CE327C7A65E1C7DB02E7DEFCBF594B864C5CA6CDBD49C957943E9FA5D5FBAF336F90F504B0304140006080800CC70623BAD7543B64E01000033030000300000
310
006662782F39464131463745442D413632322D343644302D413938332D3331353338454246344243312F636E782E786D6CD593CD6EC32010845F0571AD6CE3D48AD20813A9873E410FBD12D82434182C7EAAE6EDBB2424CD25871E7B41D6EC30B3FA84F9E67BB2E40B4234DE8DB46F1925E094D7C6ED479AD3AE5951B2113C
310
789FEE6C943839C1488B4C05DF079FE72A69D8C96C13AAD6B8631503449F83828872B949AC57D26200B826A308D316B4064D6E46FCDA41C05550DC9E483A00797BFD207EFB092A45DE9514C1BBD22178396BD39D891265658C238DEA00936C654E5E433CB65A26D9F6EDB5EBC14EBF49A45CB856E66048291F6939A9A81BB5
310
C8917738143CA680F4AA299D66A042CEB3354A2684DC9D8D178FE0D9B8B41CAAD720F880EE7EF93C0C18769E099ECC04D5A102C8049A8A05632F4DDF376CF1DE0F6BB65C2F8627B65A33C6BB62177CEBBDAD973006829F89F22E814B54F4BC2BE347F8AA8F681390B50FA73F804400B5F542E796F19FF974E7F78DB802FE05
310
E207504B0304140006080800CC70623B16AB87BA640500003C100000340000006662782F39464131463745442D413632322D343644302D413938332D3331353338454246344243312F6F626A656374732E786D6CAD575B6FA33818FD2B887DE6924B3BED8A326A92B68A663B534DD4D13E548A0C38942D60649B369D5FBFC7
310
600890A493BDE42160637FD7F31D7FF63E6FB3D478A55C242CBF3247B66B1A340F5994E4F19559CA8D75611A9F7D8F33263BCB4C232719BD32D5B4E97B316765A1A722BA21652A07B3B7B33F0D11D29C9A46981221AE4C113ED38CD8A4942CA2E2C58E882476BCD9DA23BB5ED8171B73523C0F841684D35CC252CCE79062D4
310
468DFA43D7747CCF51DF7D4FFDEB5593E3AB9CCA9FBEFE241792E4E19EB28198C968BAB8199F5D5A67D3E9C49A9E8F47D6EC76B6B0469F26EEFC7C3EBFBCBEB98462213924694B38DD98FE1D62C393D073EA4FADC5DAF04326852CCF6958F90F0F2B9BB5C48816348F90C7840A68EB78EDF68723159BCEE7891A6B95DDE9D3
310
BCEAEEE8086A6C6F9E5D4B59F0175C10A7A0820BAA5055C7473B5AE3CFDD452D602CD5DF12616444529E90D448938013FE6EFA58AA96F85E4F8C42275708571E98FE6827AF6B2B4AE3D7D83D64E5A64C53054DD3AF90BD06FEA9149565C94FCA0F6B834DC85599E4F2423B24DF0B6AFA979E534DFA9E7A4CC6FA631D486393
310
921829879BF5D781A373557BCB85E97FB90DB62B558F8795179C15944B051F40AB495CF35451D26A4727654E6D8033BD98EF82F21D91FF8AF2DD9982BCF1643BDD4EB516C9492E368C67C88DED563FC36D5EACF66DFF057C3658BDBFA69DF9578B3DA735B64F18C7F20770A9D45CFCF7FCF563D6456A277DBEF78A02637CA2
310
43B90A490AEAB94F72244481D24819A6C0E59B606BFA4B3025981DBB48EAB701D97BF19C577CC77F2D1B6C55A9EF3C732474C0B727303F625995056C3B02963D9EAC146BE78EC5FCEC7FA999EBC5EACBAAE41B12D27B4D2C0BBA49F244E2ECDC81B76B502F113D8F5EE8FB1BE3111CDD4FC2AA9B844CAB1288B68AB90A7CDC
310
1C166AB0D3DC5310625FCC14E779BFD0709F8890A629C9292B1B2DED31A4B0DA928CEE135085754027E3018A397D4D5427D15BD1330B677DC8934285AC3DF45A9EB68FF8F2B8FC0A509AFEECFD0FF2DE25CC6047F7214B195F07EFEB9A094D800F7BFAE8FED187B78EA8A3A400F115961BCAD1215E47C966530AF0EE8128FE
310
58CEBB996A8964FFA529A046635D9353B0336A8F700DDF46271A024E70B0B37C9DE01847591E54DED53D54202AB947E4076556AC49C6CA5C9E1226B7F1A7B1BE15DEED62C41B91E1B3E9AFAAA735036547343A925075041DF0A9979E893B391F8FCFA6967B3EFB644DCF6E5CEBFAE272625DCC6FAF3FB93793C5F90CE1EF57
310
407342756B10D1C489E8953CD1617E5CEECAD6F4EF8914CE5D5D504E5C3F1F9736DA62CFC11E00BCDDB8CC8A9466349744C1F75EBDA4DF09BA8A9E8C7A7E9991989E20E5DBDD6A6003664ED8F7A04A8DBE0DF6EAD9B9AA858342E47399053949D2C146EDB85DE4B176BB0965FBAC19BD19AA918E27FA50C1D22402E144464C
310
59462568E704B6E71915404CB72B8FF4EDE184DDAF753F284990D2C6926782963815403548A70C657FDEF80D2D9CEAA2AE4C1C76F60BFE74219A06527D6582DF6412526107381E55E353090704D085B52408D0933C4ED159D79BDA71BB4BC506F4831350EB6F979CD22D69BF7AC49B91A2C0A9DDA3D5CA36AD20FC478E37E6
310
1844E2352865EBCB6EA275A652E3836BE04EFB400BF1A2556F515F1FBB35B2AB35BD889C744FFA1004B5544B121E57F70215746DD2F5E2C1412B602CBF19455AC6C8E5E9922C4E01E65215385004546899059180EAFCF7A707CE7017CD8CDB0410789AB32C63B91E5CEBBBACB17AC6CD347A022D5075FD106377347AAABA7E
310
7D11590744509B44E205134DC1290F06580320F78E537D3D73540E06CB970B431F185308AD40BBD794D6D77003C5A36E8EAA54BA64597CD8F83BD552A080A365F7FF06504B0304140006080000CC70623B000000000000000000000000350000006662782F39464131463745442D413632322D343644302D413938332D3331
310
353338454246344243312F76657274696365732E62696E504B0304140006080800CC70623BF270F1330600000004000000360000006662782F39464131463745442D413632322D343644302D413938332D3331353338454246344243312F747269616E676C65732E62696E636660600000504B0304140006080000CC70623B
310
000000000000000000000000370000006662782F39464131463745442D413632322D343644302D413938332D3331353338454246344243312F617474726962757465732E62696E504B0304140006080800CC70623B08DA0BD19000000041010000360000006662782F39464131463745442D413632322D343644302D413938
310
332D3331353338454246344243312F6469726563746F72792E786D6C858F410AC3201045AF22B36F53E9A60B35CBEEBAE80D244E44489C6234F4F835464A48035D0DF398FF9F8AF63D0E6CC63039F212F8F9020C7D47C6792B21C5FE7403D62A1188E2E60C98D7234A5830286103A55745067B9D86B8A3CF9C7F90C11DE607
310
FB144396D7B6A82D282E9A152AD114D5EF2CB866EEE831B8EEA07A7BB5A8D7D61A2BAAEB7FD5F70921FF497D00504B0304140006080800CC70623B0D6EF93BFE000000A00100003B0000006662782F39464131463745442D413632322D343644302D413938332D3331353338454246344243312F7265736F75726365732F63
310
6F72652E786D6C8D50596E833010BD0A9ADFCA60B334011947A8694ED00B586642AC041B79A97AFC9A40A5F6AF3F33A3B7689E1E3F7DCD8FEC139DD7D6F4C0720A191A65476DA61E62B892236427C19DB5E1970C322367EC618541F0C9D9B8EC90B226A009093576C41D94DE63804C3DD2D18357379C652E63480A7FCF17A9
310
EE72C29CE5894E3AC17D702940B63D59270887DE46A7D0F36263058F518FBB468FE9A7BE6A7420864373B8D4873369AA8691FA421B3294352543C5CAF65C0F6FEF43CB8BD52C78D0F34F46E550061C419494B6843142CB0F5677F4B52BEB177AEC28E5C52AFF638ACBF84F53D42654E51E77B379102C05791282176B5F693D
310
CB4C7BED567C03504B010214000A0000080000CC70623B3DEE336E79000000790000001B00000000000000000000000000000000006175746F6465736B2D64657369676E2D7061636B6167652E786D6C504B01021400140006080800CC70623BD486FD9CA0000000F40000001300000000000000000000000000B20000005B
310
436F6E74656E745F54797065735D2E786D6C504B01021400140006080800CC70623B1EC5D7A3EB0000007C010000080000000000000000000000000083010000636F72652E786D6C504B01021400140006080800CC70623B55019EA25F0000007C000000070000000000000000000000000094020000636E782E786D6C504B
310
01021400140006080800CC70623B8C9102E971010000D40300000C00000000000000000000000000180300006662782F636F72652E786D6C504B01021400140006080800CC70623BFFEA85907E0000009D0000000B00000000000000000000000000B30400006662782F636E782E786D6C504B01021400140006080800CC70
310
623B4FEEA4082C0100001202000031000000000000000000000000005A0500006662782F39464131463745442D413632322D343644302D413938332D3331353338454246344243312F636F72652E786D6C504B01021400140006080800CC70623BAD7543B64E010000330300003000000000000000000000000000D5060000
310
6662782F39464131463745442D413632322D343644302D413938332D3331353338454246344243312F636E782E786D6C504B01021400140006080800CC70623B16AB87BA640500003C1000003400000000000000000000000000710800006662782F39464131463745442D413632322D343644302D413938332D3331353338
310
454246344243312F6F626A656374732E786D6C504B01021400140006080000CC70623B0000000000000000000000003500000000000000000000000000270E00006662782F39464131463745442D413632322D343644302D413938332D3331353338454246344243312F76657274696365732E62696E504B01021400140006
310
080800CC70623BF270F133060000000400000036000000000000000000000000007A0E00006662782F39464131463745442D413632322D343644302D413938332D3331353338454246344243312F747269616E676C65732E62696E504B01021400140006080000CC70623B0000000000000000000000003700000000000000
310
000000000000D40E00006662782F39464131463745442D413632322D343644302D413938332D3331353338454246344243312F617474726962757465732E62696E504B01021400140006080800CC70623B08DA0BD190000000410100003600000000000000000000000000290F00006662782F39464131463745442D413632
310
322D343644302D413938332D3331353338454246344243312F6469726563746F72792E786D6C504B01021400140006080800CC70623B0D6EF93BFE000000A00100003B000000000000000000000000000D1000006662782F39464131463745442D413632322D343644302D413938332D3331353338454246344243312F7265
310
736F75726365732F636F72652E786D6C504B0506000000000E000E0080040000641100000000
  0
XRECORD
  5
175
102
{ACAD_REACTORS
330
173
102
}
330
173
100
AcDbXrecord
280
     1
270
     1
271
     1
  0
XRECORD
  5
174
102
{ACAD_REACTORS
330
173
102
}
330
173
100
AcDbXrecord
280
     1
270
     1
271
     1
  0
XRECORD
  5
1FB
102
{ACAD_REACTORS
330
173
102
}
330
173
100
AcDbXrecord
280
     1
 70
     0
 90
1673772943
  1
ECE7A1D2-D628-4531-984C-D00F80459256
310
504B03040A0000080000CC70623B3DEE336E79000000790000001B0000006175746F6465736B2D64657369676E2D7061636B6167652E786D6C3C3F786D6C2076657273696F6E3D22312E302220656E636F64696E673D227574662D3822203F3E3C666F726D6174733E3C666F726D61743E687474703A2F2F736368656D612E
310
6175746F6465736B2E636F6D2F64657369676E2D7061636B6167652F323030393C2F666F726D61743E3C2F666F726D6174733E504B0304140006080800CC70623BD486FD9CA0000000F4000000130000005B436F6E74656E745F54797065735D2E786D6C7D8EC10E82300C865F65E91D8A1E8C310C0EEA1BF002731658846E
310
D98AC1B77784ABF1D8FE5FBFBF75BBCE937A534CCEB38643598122B6FEE978D0B0485F9C41B54DDD7D022595594E1A469170414C76A4D9A4D207E29CF43ECE46F218070CC6BECC4078ACAA135ACF422C856C0E68EA1BF5669944DDD7BCDE7B1F8E415D77AECB980613C2E4AC91FC167A2B244592486606FC29C8FD7F045B9A
310
EF7053A7E60B504B0304140006080800CC70623BD9DDAED0EC0000007C01000008000000636F72652E786D6C8D90416EC3201045AF82665B61836D9CD8C2444DD39CA01740405C94182C03558F5F9C3852BBEB6A467FFE9B197D7EF89E6EE8CB2CC17A37002D0820E394D7D68D03A478C17B4007C117EFE32F1B20272733C0
310
2A83E0E3E2D3BC49CABB685CCCAAF3DA6CA20CC14440EA969B0182FA34932C648AD911AEC52CD5558EA6A0CF2EC329598D1E47ACCEFBECC59A050463A7EA5833865FEBDD0E37353BE3EE8DBDE3F6786A48D375FBF6CC78B9C282473B3DEFABC5C86834888A900E538A49F5419B9EB47DD5BC907D4F082F57FB1F28CDFA9F50
310
B22ED6D5F6EE030B20687EE43E10BC5CB3C8E51E54AE6B6EE207504B0304140006080800CC70623B55019EA25F0000007C00000007000000636E782E786D6C4DCB3B0E80201045D1AD90E915ED2CF8AC45050C11660C8261F98AB1B07AC9C97D42D718D865D3E909258CFD00CCE24AC6E326A164D74DC0B4128928FF326038
310
472BA13128B1252AC747C6BAB984FC68F0B87FE8960A5C09FE86CFB69FBA01504B0304140006080800CC70623BA24EB22D72010000D40300000C0000006662782F636F72652E786D6CC5535B6E833010BC8AE5DF0A6C5E49888CA3A6694ED00B38E05014B091B1518EDFE511A5A9D228FD2A1F60CDEC7A67C6986DCE4D8D7A
310
69BA4AAB0C073EC548AA5C17952A33ECECD15B61B4E1CC686DBF9561A44423333CC098B3D268D7CE50AE9595CA02AA74216750749DB418E5352C32DCE59FB211BE70162ABA93DF8AFC244AE9073ED050C759670D0840D390E18DF9F1706664C23973AE2A66B62A605A75ACA4C13C4976E1364A12EF355A2EBD384AF65EFA96
310
BC7B8BED2EA6719AAE16FB8491A199335B351775B991C2CA02F390D2D40B028F861F41BCA68B7518BFD0D59A524686F29B26D7164F36B94AD9289CE54E6D1DE6010819891F6E21228B3AD1831EC219194284CF98F06DD01008846CC5A1BEF83801D4CBDC6A1303536877A57A513B0953A94FC707FDBE6064EA84A9E3E6E0FA
310
EE8CF0E9198F7784A316AA0413C2C2F2E0ECA0934D1AE6D05A69BCDE9E91D2A611F573361E38FC1375157F5752AE6B6DFE4B11990F88CCBF0719EE23FF02504B0304140006080800CC70623B408A7D3B7C0000009D0000000B0000006662782F636E782E786D6C4DCCD10A83201886E15B91FFDC552A92A0064DBC8F581632
310
D3703A76F9ABD1C18E3E78F878E5F0D9027ABBFCF2292AE86E2D20171F69F6715550CB827B40839639A5F2770314A7CD293819B45C73AAFB45B35BA61ACAA1C1C7E7855C58C15BC331339661262CC762340413D68D77DA5B42298546CBE6573AF60CEB2F504B0304140006080800CC70623B449FB9BD290100001202000031
310
0000006662782F36394639363044362D344446342D343946362D394244322D3234314243333846323333332F636F72652E786D6C8D515B6EC32010BC0AE22B55850D98B871848994463E412FE002495162B07854397EA176A4F62F3F2C9A9D991D587EB84F37F0AD7D30CEF6905418026DA553C65E7A98E219ED203808EE9D
310
8B7F6810D871D23D2C3014FCE25D9A57483A1BB58D19B54EE9151C43D0110279CB971E06F9A5A7B11A53CC8C70ADE6515EC78BAE4895DB992778883E0700CB907242D17643D7E2538BD869608875438BBAE38922CAC8F1BDD90DB4691A5E2F42C153326A951B95E398B3D1FE599322163C9AE9115F7A3D46ADA0A018778810
310
84E907617BDCEE297BC5BB3DC6BC2EF47FA234AB2745C9D8D8D035EE220B50105E2F0DC1954B9FB747187D9F9D8FA0CCDB042D5FA0C015C65B42DF78BD10F3F3B363CB56C7109DCFDFBBB97E662ED92EB62D13BC2E1BCAE5777DB9966D8A1F504B0304140006080800CC70623BAD7543B64E01000033030000300000006662
310
782F36394639363044362D344446342D343946362D394244322D3234314243333846323333332F636E782E786D6CD593CD6EC32010845F0571AD6CE3D48AD20813A9873E410FBD12D82434182C7EAAE6EDBB2424CD25871E7B41D6EC30B3FA84F9E67BB2E40B4234DE8DB46F1925E094D7C6ED479AD3AE5951B2113C789FEE
310
6C943839C1488B4C05DF079FE72A69D8C96C13AAD6B8631503449F83828872B949AC57D26200B826A308D316B4064D6E46FCDA41C05550DC9E483A00797BFD207EFB092A45DE9514C1BBD22178396BD39D891265658C238DEA00936C654E5E433CB65A26D9F6EDB5EBC14EBF49A45CB856E66048291F6939A9A81BB5C89177
310
38143CA680F4AA299D66A042CEB3354A2684DC9D8D178FE0D9B8B41CAAD720F880EE7EF93C0C18769E099ECC04D5A102C8049A8A05632F4DDF376CF1DE0F6BB65C2F8627B65A33C6BB62177CEBBDAD973006829F89F22E814B54F4BC2BE347F8AA8F681390B50FA73F804400B5F542E796F19FF974E7F78DB802FE05E20750
310
4B0304140006080800CC70623B8D05915C650500003B100000340000006662782F36394639363044362D344446342D343946362D394244322D3234314243333846323333332F6F626A656374732E786D6CAD575B6FA33814FE2B887D06429276DA1565D4266D158D3A339A6846FB502932E050B66023DB74D2FDF5FB190C01
310
9276B2973C046C8ECFF53B17071F77456EBD502133CEAE6CDF9DD81665314F32965ED995DA3A17B6F5310C04E7AA47665B8C14F4CAD6DB7618A48257A5D94AE89654B91AEDDEDDFC61C998326A5B714EA4BCB265FC440BE2924AF184CA6737218AB8E976E7FA6E4338649B0A523E8D98964450A6A029F619B8588D52FE7039
310
B1BD30F0F4F730D0FF866AF6369557DB33949F31A9088B0F848DD8CCFCF9F2767A76E99CCDE733677E3EF59D9BBB9BA5E37F984D16E78BC5E5F5ED25044B25C0C96822E8D60EEFE11B91C581D77CEA34368A1F5329E68CD1B8B61F16D63A1B8E092D294B10C78C4A48EB593D192E7DED9BDEE7995E1B91FDEDD3ACEA9FE831
310
6A756F9F7D4D79F4274C90A7A04248AA51D5F8C718DAE06FB2F75AC4796EBE65D22A88A22223B995679120E2D50E41AA49C260C046A35368846B0BECD0DFF3EBEB8AD4F835768F69B9ADF25C43D30E6B646F807FAA64AD59F61715C7A54127C4AACA98BA3006A9D792DAE165E0D59B61A01FB3A9F9D838D2DAE62445C86166
310
F37564E842E7DE6A69879FEEA2DD5AE7E371E1A5E025154AC307D06A03D73EB5978C58FFA4C8E9033066E0F3BD53BEC1F39F91BE7B55103791EDE6BBB991A2046172CB4581D8B893FA674DDA17A77B3B7C413D1B511FD2743BFF8A38F03A658705E3ADF8015C3A3417FF3D7E439FF591DA0B5F18BC20C1B8981957AE6392A3
310
F43C640C01D1A0B4728E2DD4F26DB4B3C3152A252A3B4E913CEC1C72F012782FF88EFF8637AA552DBEF76408E8A8DE9E50F9E1CB3A2DA0DB1B6039A893B56063DC5B3E3FFB5F72E67AB9FEB4AEC496C4F4C1149625DD662C53E89D7BF0F6151A046260D1337DFDC94502430F83B0EE07A130A224BCAD7DAE1D9FB6CD422FF6
310
920702629C4BB9AE79C12F243C6432A6794E18E5552BA56B431AAB5D91317302B2B071E86C3A42B1A02F999E24061403B5D0EB639195DA655DD3EBEAB4FB862DDF579F014AD0E73C22F99E28DA57FB98E75C6CA2D74D53086D600F4786E0FE3144B771A8A7B900F03594DB8A633CBC49B2EDB69228BB479CF863B5E807AAAB
310
23872F6DFEB4129B949CA33823F58830E86D65621E10047D9DB34D862E8EAC3C2ABC2F7B2C40D67CDFE01F5545B92105AF983AC54D93D69E56FB8E797F88913F898A9FEC705D3F9D1B54EC8426FB500D40A03BD0119B06E1B95DDC7EB8F6975367793EBD70E66733DFB9BC982F9CE564727731999F5D4ECFCE3B8D6A4DC2A0
310
6D50FD148437D110834A64C6CDDF57FBACB5C307A2A477DFE4939736CFEF2B175371E0E10CF0DD1D5C15654E0BCA14D1E87DD02FF93782A162C0A3D95F1524A52770F972BF1EE9809D13CE7DD599467F8ECE9ADD85CE85A34CD45355448C64F9E8A031DC2D596ACC6E5DD93D9B82DE2EF5CAF81363A8E47996A0DE24564A79
310
4115AACE09C55E14540231FDA13C319787134EBF34E3A022514E5B4D9E0826E25C02D5805B15ABE1BEF51B26383D445DD9E875EE33FE4C22DA16427D65A3BCA92CA6D28DD01DF5DC53330704308475351050232CCD31583787BA75774AFB06E5070DD0C8EF484E19968C5D83BA5B90B244D31E54D55A372320FE4786B7EA58
310
44E135AA5467CB7EA333A61683CC6A8C3257034C10CF46F40EF9F5BE59BE5BD30C3C72D235E95D10345C1D45445A5F0BB47E46A5EBE5570F9380B5FA629579952296A773720405982B9DE04011506178964401AA8BDF1FBF0A8EAB6861DD6580C0E38217056766716DAEB2D6FA0917D3E4116581EADB879C4E7CFFB11EFACD
310
3D641311495D92C8676CB409A72D18610D803CE8A626049E8EC1887CB5B44CC39883690DDA8399B4B9855B481E7D71D4A9D22F96E5BB73BF5793020C02137BF837504B0304140006080000CC70623B000000000000000000000000350000006662782F36394639363044362D344446342D343946362D394244322D32343142
310
43333846323333332F76657274696365732E62696E504B0304140006080800CC70623BF270F1330600000004000000360000006662782F36394639363044362D344446342D343946362D394244322D3234314243333846323333332F747269616E676C65732E62696E636660600000504B0304140006080000CC70623B0000
310
00000000000000000000370000006662782F36394639363044362D344446342D343946362D394244322D3234314243333846323333332F617474726962757465732E62696E504B0304140006080800CC70623B08DA0BD19000000041010000360000006662782F36394639363044362D344446342D343946362D394244322D
310
3234314243333846323333332F6469726563746F72792E786D6C858F410AC3201045AF22B36F53E9A60B35CBEEBAE80D244E44489C6234F4F835464A48035D0DF398FF9F8AF63D0E6CC63039F212F8F9020C7D47C6792B21C5FE7403D62A1188E2E60C98D7234A5830286103A55745067B9D86B8A3CF9C7F90C11DE607FB14
310
4396D7B6A82D282E9A152AD114D5EF2CB866EEE831B8EEA07A7BB5A8D7D61A2BAAEB7FD5F70921FF497D00504B0304140006080800CC70623BCA768048FE000000A00100003B0000006662782F36394639363044362D344446342D343946362D394244322D3234314243333846323333332F7265736F75726365732F636F72
310
652E786D6C8D50596E833010BD0A9ADFCA60D600328E9AA639412F609909B1126CE4A5EAF16B0295DABFFECC8CDEA2797AECF8353F924FB44E193D409E5248504B332A3D0D10FC95B4901C39B3C6F85F3248B49871801506CE266BC2B243D2688FDA47549B11775038871E12F988C7004EDE7016A9083E2ADC3D5D84BC8B09
310
D33C8D74D471E6BC8D0192EDC93A815B742658898E651BCB59086ADC356A8C3FD555A1055ED7E7E254D615792D0F075295F585746FF53B694EE78A565DD736979A65AB9933AFE69F8CD2A2F038022F28ED489E135A7CE4554F9BBEA85E68DB53CAB255FEC71496F19FA6A0B42F8B3DEE6673C0F318E4497096AD7DC5F52C33
310
EEB55BFE0D504B010214000A0000080000CC70623B3DEE336E79000000790000001B00000000000000000000000000000000006175746F6465736B2D64657369676E2D7061636B6167652E786D6C504B01021400140006080800CC70623BD486FD9CA0000000F40000001300000000000000000000000000B20000005B436F
310
6E74656E745F54797065735D2E786D6C504B01021400140006080800CC70623BD9DDAED0EC0000007C010000080000000000000000000000000083010000636F72652E786D6C504B01021400140006080800CC70623B55019EA25F0000007C000000070000000000000000000000000095020000636E782E786D6C504B0102
310
1400140006080800CC70623BA24EB22D72010000D40300000C00000000000000000000000000190300006662782F636F72652E786D6C504B01021400140006080800CC70623B408A7D3B7C0000009D0000000B00000000000000000000000000B50400006662782F636E782E786D6C504B01021400140006080800CC70623B
310
449FB9BD290100001202000031000000000000000000000000005A0500006662782F36394639363044362D344446342D343946362D394244322D3234314243333846323333332F636F72652E786D6C504B01021400140006080800CC70623BAD7543B64E010000330300003000000000000000000000000000D20600006662
310
782F36394639363044362D344446342D343946362D394244322D3234314243333846323333332F636E782E786D6C504B01021400140006080800CC70623B8D05915C650500003B10000034000000000000000000000000006E0800006662782F36394639363044362D344446342D343946362D394244322D32343142433338
310
46323333332F6F626A656374732E786D6C504B01021400140006080000CC70623B0000000000000000000000003500000000000000000000000000250E00006662782F36394639363044362D344446342D343946362D394244322D3234314243333846323333332F76657274696365732E62696E504B010214001400060808
310
00CC70623BF270F13306000000040000003600000000000000000000000000780E00006662782F36394639363044362D344446342D343946362D394244322D3234314243333846323333332F747269616E676C65732E62696E504B01021400140006080000CC70623B00000000000000000000000037000000000000000000
310
00000000D20E00006662782F36394639363044362D344446342D343946362D394244322D3234314243333846323333332F617474726962757465732E62696E504B01021400140006080800CC70623B08DA0BD190000000410100003600000000000000000000000000270F00006662782F36394639363044362D344446342D
310
343946362D394244322D3234314243333846323333332F6469726563746F72792E786D6C504B01021400140006080800CC70623BCA768048FE000000A00100003B000000000000000000000000000B1000006662782F36394639363044362D344446342D343946362D394244322D3234314243333846323333332F7265736F
310
75726365732F636F72652E786D6C504B0506000000000E000E0080040000621100000000
  0
XRECORD
  5
176
102
{ACAD_REACTORS
330
173
102
}
330
173
100
AcDbXrecord
280
     1
270
     1
271
     1
  0
XRECORD
  5
177
102
{ACAD_REACTORS
330
173
102
}
330
173
100
AcDbXrecord
280
     1
270
     1
271
     1
  0
CELLSTYLEMAP
  5
BA0
102
{ACAD_REACTORS
330
162
102
}
330
162
100
AcDbCellStyleMap
 90
        3
300
CELLSTYLE
  1
TABLEFORMAT_BEGIN
 90
        5
170
     1
 91
        0
 92
    32768
 62
   257
 93
        1
300
CONTENTFORMAT
  1
CONTENTFORMAT_BEGIN
 90
        0
 91
        0
 92
      512
 93
        0
300

 40
0.0
140
1.0
 94
        5
 62
     0
340
11
144
6.0
309
CONTENTFORMAT_END
171
     1
301
MARGIN
  1
CELLMARGIN_BEGIN
 40
1.5
 40
1.5
 40
1.5
 40
1.5
 40
4.5
 40
4.5
309
CELLMARGIN_END
 94
        6
 95
        1
302
GRIDFORMAT
  1
GRIDFORMAT_BEGIN
 90
        0
 91
        1
 62
     0
 92
       -2
340
14
 93
        0
 40
1.125
309
GRIDFORMAT_END
 95
        2
302
GRIDFORMAT
  1
GRIDFORMAT_BEGIN
 90
        0
 91
        1
 62
     0
 92
       -2
340
14
 93
        0
 40
1.125
309
GRIDFORMAT_END
 95
        4
302
GRIDFORMAT
  1
GRIDFORMAT_BEGIN
 90
        0
 91
        1
 62
     0
 92
       -2
340
14
 93
        0
 40
1.125
309
GRIDFORMAT_END
 95
        8
302
GRIDFORMAT
  1
GRIDFORMAT_BEGIN
 90
        0
 91
        1
 62
     0
 92
       -2
340
14
 93
        0
 40
1.125
309
GRIDFORMAT_END
 95
       16
302
GRIDFORMAT
  1
GRIDFORMAT_BEGIN
 90
        0
 91
        1
 62
     0
 92
       -2
340
14
 93
        0
 40
1.125
309
GRIDFORMAT_END
 95
       32
302
GRIDFORMAT
  1
GRIDFORMAT_BEGIN
 90
        0
 91
        1
 62
     0
 92
       -2
340
14
 93
        0
 40
1.125
309
GRIDFORMAT_END
309
TABLEFORMAT_END
  1
CELLSTYLE_BEGIN
 90
        1
 91
        1
300
_TITLE
309
CELLSTYLE_END
300
CELLSTYLE
  1
TABLEFORMAT_BEGIN
 90
        5
170
     1
 91
        0
 92
        0
 62
   257
 93
        1
300
CONTENTFORMAT
  1
CONTENTFORMAT_BEGIN
 90
        0
 91
        0
 92
      512
 93
        0
300

 40
0.0
140
1.0
 94
        5
 62
     0
340
11
144
4.5
309
CONTENTFORMAT_END
171
     1
301
MARGIN
  1
CELLMARGIN_BEGIN
 40
1.5
 40
1.5
 40
1.5
 40
1.5
 40
4.5
 40
4.5
309
CELLMARGIN_END
 94
        6
 95
        1
302
GRIDFORMAT
  1
GRIDFORMAT_BEGIN
 90
        0
 91
        1
 62
     0
 92
       -2
340
14
 93
        0
 40
1.125
309
GRIDFORMAT_END
 95
        2
302
GRIDFORMAT
  1
GRIDFORMAT_BEGIN
 90
        0
 91
        1
 62
     0
 92
       -2
340
14
 93
        0
 40
1.125
309
GRIDFORMAT_END
 95
        4
302
GRIDFORMAT
  1
GRIDFORMAT_BEGIN
 90
        0
 91
        1
 62
     0
 92
       -2
340
14
 93
        0
 40
1.125
309
GRIDFORMAT_END
 95
        8
302
GRIDFORMAT
  1
GRIDFORMAT_BEGIN
 90
        0
 91
        1
 62
     0
 92
       -2
340
14
 93
        0
 40
1.125
309
GRIDFORMAT_END
 95
       16
302
GRIDFORMAT
  1
GRIDFORMAT_BEGIN
 90
        0
 91
        1
 62
     0
 92
       -2
340
14
 93
        0
 40
1.125
309
GRIDFORMAT_END
 95
       32
302
GRIDFORMAT
  1
GRIDFORMAT_BEGIN
 90
        0
 91
        1
 62
     0
 92
       -2
340
14
 93
        0
 40
1.125
309
GRIDFORMAT_END
309
TABLEFORMAT_END
  1
CELLSTYLE_BEGIN
 90
        2
 91
        1
300
_HEADER
309
CELLSTYLE_END
300
CELLSTYLE
  1
TABLEFORMAT_BEGIN
 90
        5
170
     1
 91
        0
 92
        0
 62
   257
 93
        1
300
CONTENTFORMAT
  1
CONTENTFORMAT_BEGIN
 90
        0
 91
        0
 92
      512
 93
        0
300

 40
0.0
140
1.0
 94
        2
 62
     0
340
11
144
4.5
309
CONTENTFORMAT_END
171
     1
301
MARGIN
  1
CELLMARGIN_BEGIN
 40
1.5
 40
1.5
 40
1.5
 40
1.5
 40
4.5
 40
4.5
309
CELLMARGIN_END
 94
        6
 95
        1
302
GRIDFORMAT
  1
GRIDFORMAT_BEGIN
 90
        0
 91
        1
 62
     0
 92
       -2
340
14
 93
        0
 40
1.125
309
GRIDFORMAT_END
 95
        2
302
GRIDFORMAT
  1
GRIDFORMAT_BEGIN
 90
        0
 91
        1
 62
     0
 92
       -2
340
14
 93
        0
 40
1.125
309
GRIDFORMAT_END
 95
        4
302
GRIDFORMAT
  1
GRIDFORMAT_BEGIN
 90
        0
 91
        1
 62
     0
 92
       -2
340
14
 93
        0
 40
1.125
309
GRIDFORMAT_END
 95
        8
302
GRIDFORMAT
  1
GRIDFORMAT_BEGIN
 90
        0
 91
        1
 62
     0
 92
       -2
340
14
 93
        0
 40
1.125
309
GRIDFORMAT_END
 95
       16
302
GRIDFORMAT
  1
GRIDFORMAT_BEGIN
 90
        0
 91
        1
 62
     0
 92
       -2
340
14
 93
        0
 40
1.125
309
GRIDFORMAT_END
 95
       32
302
GRIDFORMAT
  1
GRIDFORMAT_BEGIN
 90
        0
 91
        1
 62
     0
 92
       -2
340
14
 93
        0
 40
1.125
309
GRIDFORMAT_END
309
TABLEFORMAT_END
  1
CELLSTYLE_BEGIN
 90
        3
 91
        2
300
_DATA
309
CELLSTYLE_END
  0
ENDSEC
  0
EOF
